Giacomo Puccini - Manon Lescaut / Джакомо Пуччини - Манон Леско (Metropolitan Opera, Fabio Luisi, Richard Eyre, Kristine Opolais, Roberto Alagna) [2016, Opera, HDTVRip]


 

[Цитировать]

Giacomo Puccini - Manon Lescaut / Джакомо Пуччини - Манон Леско
Год выпуска: 2016
Лейбл: MetOpera
Страна-производитель: USA
Жанр: Opera
Продолжительность: 00:48:35 + 01:05:50 + 00:58:33
Язык: итальянский
Перевод: не требуется
Субтитры: Eng, Rus
Дирижер: Fabio Luisi
Режиссер: Richard Eyre
Хореограф: Sara Erde
Исполнители:
MANON LESCAUT - Kristine Opolais
DES GRIEUX - Roberto Alagna
LESCAUT - Massimo Cavalletti
GERONTE - Brindley Sherratt
Описание: Запись Live HD из "Metropolitan Opera", New-York, 5 марта, 2016.
Доп. информация: в видео присутствуют интервью, которые были во время антрактов, без субтитров
Качество видео: HDTVRip
Формат/Контейнер: MKV
Видео кодек: MPEG2
Аудио кодек: AC3
Видео поток: MPEG2 Video 1920x1080, 15.5 Mbps, 25fps
Аудио поток: Dolby AC3 48000Hz 6ch 448kbps

MediaInfo1 часть

Общее
Уникальный идентификатор : 178020214260083464068863211382714661381 (0x85ED7235E6CD12788C73832A2457FA05)
Полное имя : G:\doc\download\Manon\Manon.Lescaut.P1.HD.Met.Opera.mkv
Формат : Matroska
Версия формата : Version 4 / Version 2
Размер файла : 5,52 Гбайт
Продолжительность : 48 м.
Режим общего битрейта : Переменный
Общий поток : 16,3 Мбит/сек
Дата кодирования : UTC 2016-03-06 10:18:23
Программа кодирования : mkvmerge v8.5.0 ('Vanishing Act') 64bit
Библиотека кодирования : libebml v1.3.1 + libmatroska v1.4.2
DURATION : 00:33:54.760000000
NUMBER_OF_FRAMES : 192
NUMBER_OF_BYTES : 7614
_STATISTICS_WRITING_APP : mkvmerge v8.5.0 ('Vanishing Act') 64bit
_STATISTICS_WRITING_DATE_UTC : 2016-03-06 10:18:23
_STATISTICS_TAGS : BPS DURATION NUMBER_OF_FRAMES NUMBER_OF_BYTES
Видео
Идентификатор : 1
Формат : MPEG Video
Версия формата : Version 2
Профиль формата : Main@High
Параметр BVOP формата : Нет
Параметр матрицы формата : Выборочная
Идентификатор кодека : V_MPEG2
Идентификатор кодека/Информация : MPEG 1 or 2 Video
Продолжительность : 48 м.
Вид битрейта : Переменный
Битрейт : 15,5 Мбит/сек
Максимальный битрейт : 16,0 Мбит/сек
Ширина : 1920 пикселей
Высота : 1080 пикселей
Соотношение сторон : 16:9
Режим частоты кадров : Постоянный
Частота кадров : 25,000 кадров/сек
Цветовое пространство : YUV
Субдискретизация насыщенности : 4:2:0
Битовая глубина : 8 бит
Тип развёртки : Чересстрочная
Порядок развёртки : Верхнее поле первое
Метод сжатия : С потерями
Бит/(Пиксели*Кадры) : 0.299
Временной код первого кадра : 00:00:00:00
Оригинал временного кода : Group of pictures header
Размер потока : 5,26 Гбайт (95%)
Библиотека кодирования : (dvd5: Dec 5 2013)
Default : Да
Forced : Нет
Аудио
Идентификатор : 2
Формат : AC-3
Формат/Информация : Audio Coding 3
Расширение режима : CM (complete main)
Параметр Endianness формата : Big
Идентификатор кодека : A_AC3
Продолжительность : 48 м.
Вид битрейта : Постоянный
Битрейт : 448 Кбит/сек
Каналы : 6 каналов
Расположение каналов : Front: L C R, Side: L R, LFE
Частота : 48,0 КГц
Битовая глубина : 16 бит
Метод сжатия : С потерями
Размер потока : 156 Мбайт (3%)
Default : Да
Forced : Нет
Текст #1
Идентификатор : 3
Формат : UTF-8
Идентификатор кодека : S_TEXT/UTF8
Идентификатор кодека/Информация : UTF-8 Plain Text
Язык : Russian
Default : Да
Forced : Нет
Текст #2
Идентификатор : 4
Формат : UTF-8
Идентификатор кодека : S_TEXT/UTF8
Идентификатор кодека/Информация : UTF-8 Plain Text
Язык : English
Default : Нет
Forced : Нет

2 часть

Общее
Уникальный идентификатор : 204278916707478965148275456690628993497 (0x99AEB0326C415EA4B08BFCD3E0E221D9)
Полное имя : G:\doc\download\Manon\Manon.Lescaut.P2.HD.Met.Opera.mkv
Формат : Matroska
Версия формата : Version 4 / Version 2
Размер файла : 7,48 Гбайт
Продолжительность : 1 ч. 5 м.
Режим общего битрейта : Переменный
Общий поток : 16,3 Мбит/сек
Дата кодирования : UTC 2016-03-06 10:31:29
Программа кодирования : mkvmerge v8.5.0 ('Vanishing Act') 64bit
Библиотека кодирования : libebml v1.3.1 + libmatroska v1.4.2
DURATION : 00:39:22.488000000
NUMBER_OF_FRAMES : 214
NUMBER_OF_BYTES : 8487
_STATISTICS_WRITING_APP : mkvmerge v8.5.0 ('Vanishing Act') 64bit
_STATISTICS_WRITING_DATE_UTC : 2016-03-06 10:31:29
_STATISTICS_TAGS : BPS DURATION NUMBER_OF_FRAMES NUMBER_OF_BYTES
Видео
Идентификатор : 1
Формат : MPEG Video
Версия формата : Version 2
Профиль формата : Main@High
Параметр BVOP формата : Нет
Параметр матрицы формата : Выборочная
Идентификатор кодека : V_MPEG2
Идентификатор кодека/Информация : MPEG 1 or 2 Video
Продолжительность : 1 ч. 5 м.
Вид битрейта : Переменный
Битрейт : 15,5 Мбит/сек
Максимальный битрейт : 16,1 Мбит/сек
Ширина : 1920 пикселей
Высота : 1080 пикселей
Соотношение сторон : 16:9
Режим частоты кадров : Постоянный
Частота кадров : 25,000 кадров/сек
Цветовое пространство : YUV
Субдискретизация насыщенности : 4:2:0
Битовая глубина : 8 бит
Тип развёртки : Чересстрочная
Порядок развёртки : Верхнее поле первое
Метод сжатия : С потерями
Бит/(Пиксели*Кадры) : 0.299
Временной код первого кадра : 00:00:00:00
Оригинал временного кода : Group of pictures header
Размер потока : 7,13 Гбайт (95%)
Библиотека кодирования : (dvd5: Dec 5 2013)
Default : Да
Forced : Нет
Аудио
Идентификатор : 2
Формат : AC-3
Формат/Информация : Audio Coding 3
Расширение режима : CM (complete main)
Параметр Endianness формата : Big
Идентификатор кодека : A_AC3
Продолжительность : 1 ч. 5 м.
Вид битрейта : Постоянный
Битрейт : 448 Кбит/сек
Каналы : 6 каналов
Расположение каналов : Front: L C R, Side: L R, LFE
Частота : 48,0 КГц
Битовая глубина : 16 бит
Метод сжатия : С потерями
Задержка видео : -40 мс.
Размер потока : 211 Мбайт (3%)
Default : Да
Forced : Нет
Текст #1
Идентификатор : 3
Формат : UTF-8
Идентификатор кодека : S_TEXT/UTF8
Идентификатор кодека/Информация : UTF-8 Plain Text
Язык : Russian
Default : Да
Forced : Нет
Текст #2
Идентификатор : 4
Формат : UTF-8
Идентификатор кодека : S_TEXT/UTF8
Идентификатор кодека/Информация : UTF-8 Plain Text
Язык : English
Default : Нет
Forced : Нет

3 часть

Общее
Уникальный идентификатор : 193699520889292312573652755896213758944 (0x91B92BB63BD0CB869B3C9D09C0B0E3E0)
Полное имя : G:\doc\download\Manon\Manon.Lescaut.P3.HD.Met.Opera.mkv
Формат : Matroska
Версия формата : Version 4 / Version 2
Размер файла : 6,67 Гбайт
Продолжительность : 58 м.
Режим общего битрейта : Переменный
Общий поток : 16,3 Мбит/сек
Дата кодирования : UTC 2016-03-06 10:45:59
Программа кодирования : mkvmerge v8.5.0 ('Vanishing Act') 64bit
Библиотека кодирования : libebml v1.3.1 + libmatroska v1.4.2
DURATION : 00:38:33.451000000
NUMBER_OF_FRAMES : 151
NUMBER_OF_BYTES : 5501
_STATISTICS_WRITING_APP : mkvmerge v8.5.0 ('Vanishing Act') 64bit
_STATISTICS_WRITING_DATE_UTC : 2016-03-06 10:45:59
_STATISTICS_TAGS : BPS DURATION NUMBER_OF_FRAMES NUMBER_OF_BYTES
Видео
Идентификатор : 1
Формат : MPEG Video
Версия формата : Version 2
Профиль формата : Main@High
Параметр BVOP формата : Нет
Параметр матрицы формата : Выборочная
Идентификатор кодека : V_MPEG2
Идентификатор кодека/Информация : MPEG 1 or 2 Video
Продолжительность : 58 м.
Вид битрейта : Переменный
Битрейт : 15,5 Мбит/сек
Максимальный битрейт : 16,6 Мбит/сек
Ширина : 1920 пикселей
Высота : 1080 пикселей
Соотношение сторон : 16:9
Режим частоты кадров : Постоянный
Частота кадров : 25,000 кадров/сек
Цветовое пространство : YUV
Субдискретизация насыщенности : 4:2:0
Битовая глубина : 8 бит
Тип развёртки : Чересстрочная
Порядок развёртки : Верхнее поле первое
Метод сжатия : С потерями
Бит/(Пиксели*Кадры) : 0.300
Временной код первого кадра : 00:00:00:00
Оригинал временного кода : Group of pictures header
Размер потока : 6,36 Гбайт (95%)
Библиотека кодирования : (dvd5: Dec 5 2013)
Default : Да
Forced : Нет
Аудио
Идентификатор : 2
Формат : AC-3
Формат/Информация : Audio Coding 3
Расширение режима : CM (complete main)
Параметр Endianness формата : Big
Идентификатор кодека : A_AC3
Продолжительность : 58 м.
Вид битрейта : Постоянный
Битрейт : 448 Кбит/сек
Каналы : 6 каналов
Расположение каналов : Front: L C R, Side: L R, LFE
Частота : 48,0 КГц
Битовая глубина : 16 бит
Метод сжатия : С потерями
Задержка видео : -40 мс.
Размер потока : 188 Мбайт (3%)
Default : Да
Forced : Нет
Текст #1
Идентификатор : 3
Формат : UTF-8
Идентификатор кодека : S_TEXT/UTF8
Идентификатор кодека/Информация : UTF-8 Plain Text
Язык : Russian
Default : Да
Forced : Нет
Текст #2
Идентификатор : 4
Формат : UTF-8
Идентификатор кодека : S_TEXT/UTF8
Идентификатор кодека/Информация : UTF-8 Plain Text
Язык : English
Default : Нет
Forced : Нет



Показать сообщения:    

Текущее время: 11-Дек 09:07

Часовой пояс: UTC + 3


Вы не можете начинать темы
Вы не можете отвечать на сообщения
Вы не можете редактировать свои сообщения
Вы не можете удалять свои сообщения
Вы не можете голосовать в опросах
Вы не можете прикреплять файлы к сообщениям
Вы не можете скачивать файлы