Караваджо / Caravaggio (Дерек Джармен / Derek Jarman) [1986, Великобритания, драма, биография, история, BDRip] MVO + DVO (Видеосервис) + Sub Rus, Eng + Original Eng


 

[Цитировать]

Караваджо / Caravaggio
Страна: Великобритания
Жанр: драма, биография, история
Год выпуска: 1986
Продолжительность: 01:33:15
Перевод 1: Профессиональный (многоголосый закадровый)
Перевод 2: Профессиональный (двухголосый закадровый) - Видеосервис
Cубтитры: русские, английские
Оригинальная аудиодорожка: английский
Режиссер: Дерек Джармен / Derek Jarman
В ролях: Тильда Суинтон, Найджел Терри, Ноам Алмас, Доун Арчибальд, Шон Бин, Джек Биркетт, Сэди Корр, Уна Брэндон-Джонс, Имоджен Клер, Робби Колтрейн
Описание: Здесь красота тела важнее пола, а любовь беспощаднее дружбы. Караваджо создавал шедевры со скоростью клипмейкера. И при этом не вылезал из драк, дебошей и бисексуальных оргий под самым носом Ватикана.
Доп. информация:


За многоголоску спасибо sergdoc
За двухголоску спасибо ralf124c41+
Сэмпл: http://sendfile.su/1211143
Качество видео: BDRip (Исходник: Caravaggio 1986 1080p JPN Blu-ray AVC LPCM 2.0)
Формат видео: AVI
Видео: XviD, 688x368, 23,976fps, 1657kbps, 0.273bit/pixel
Аудио 1: Russian: AC3, 48000Hz, 1ch, 192kbps - MVO
Аудио 2: Russian: AC3, 48000Hz, 2ch, 192kbps - Видеосервис
Аудио 3: English: AC3, 48000Hz, 2ch, 192kbps
Формат субтитров: softsub (SRT)

MediaInfo

Общее
Полное имя : Z:\Караваджо (Caravaggio)\Caravaggio.avi
Формат : AVI
Формат/Информация : Audio Video Interleave
Размер файла : 1,47 Гбайт
Продолжительность : 1 ч. 33 м.
Общий поток : 2251 Кбит/сек
Программа кодирования : VirtualDubMod 1.5.10.2 (build 2540/release)
Библиотека кодирования : VirtualDubMod build 2540/release
Видео
Идентификатор : 0
Формат : MPEG-4 Visual
Профиль формата : Advanced Simple@L5
Параметр BVOP формата : 2
Параметр QPel формата : Нет
Параметр GMC формата : Без точки перехода
Параметр матрицы формата : Выборочная
Идентификатор кодека : XVID
Идентификатор кодека/Подсказка : XviD
Продолжительность : 1 ч. 33 м.
Битрейт : 1657 Кбит/сек
Ширина : 688 пикселей
Высота : 368 пикселей
Соотношение сторон : 1,85:1
Частота кадров : 23,976 (23976/1000) кадра/сек
Цветовое пространство : YUV
Субдискретизация насыщенности : 4:2:0
Битовая глубина : 8 бит
Тип развёртки : Прогрессивная
Метод сжатия : С потерями
Бит/(Пиксели*Кадры) : 0.273
Размер потока : 1,08 Гбайт (74%)
Библиотека кодирования : XviD 65
Аудио #1
Идентификатор : 1
Формат : AC-3
Формат/Информация : Audio Coding 3
Расширение режима : CM (complete main)
Параметр Endianness формата : Big
Идентификатор кодека : 2000
Продолжительность : 1 ч. 32 м.
Вид битрейта : Постоянный
Битрейт : 192 Кбит/сек
Каналы : 1 канал
Расположение каналов : Front: C
Частота : 48,0 КГц
Частота кадров : 31,250 кадров/сек (1536 spf)
Метод сжатия : С потерями
Размер потока : 128 Мбайт (9%)
Выравнивание : Разделение по промежуткам
Продолжительность промежутка : 42 мс. (1,00 видеокадр)
Время предзагрузки промежутка : 500 мс.
Аудио #2
Идентификатор : 2
Формат : AC-3
Формат/Информация : Audio Coding 3
Расширение режима : CM (complete main)
Параметр Endianness формата : Big
Идентификатор кодека : 2000
Продолжительность : 1 ч. 32 м.
Вид битрейта : Постоянный
Битрейт : 192 Кбит/сек
Каналы : 2 канала
Расположение каналов : Front: L R
Частота : 48,0 КГц
Частота кадров : 31,250 кадров/сек (1536 spf)
Метод сжатия : С потерями
Размер потока : 128 Мбайт (9%)
Выравнивание : Разделение по промежуткам
Продолжительность промежутка : 42 мс. (1,00 видеокадр)
Время предзагрузки промежутка : 500 мс.
Аудио #3
Идентификатор : 3
Формат : AC-3
Формат/Информация : Audio Coding 3
Расширение режима : CM (complete main)
Параметр Endianness формата : Big
Идентификатор кодека : 2000
Продолжительность : 1 ч. 33 м.
Вид битрейта : Постоянный
Битрейт : 192 Кбит/сек
Каналы : 2 канала
Расположение каналов : Front: L R
Частота : 48,0 КГц
Частота кадров : 31,250 кадров/сек (1536 spf)
Метод сжатия : С потерями
Размер потока : 128 Мбайт (9%)
Выравнивание : Разделение по промежуткам
Продолжительность промежутка : 42 мс. (1,00 видеокадр)
Время предзагрузки промежутка : 500 мс.

Скриншот c названием фильма

Скриншоты




Показать сообщения:    

Текущее время: 03-Дек 16:43

Часовой пояс: UTC + 3


Вы не можете начинать темы
Вы не можете отвечать на сообщения
Вы не можете редактировать свои сообщения
Вы не можете удалять свои сообщения
Вы не можете голосовать в опросах
Вы не можете прикреплять файлы к сообщениям
Вы не можете скачивать файлы