Дядя / Strejda (Яромил Иреш / Jaromil Jires) [1959, Чехословакия, короткометражка, комедия, BDRip] Sub (Rus, Eng) + Original (Cze)


Статистика раздачи [Обновить пиров]
Размер:  113 MB   |    Зарегистрирован:  8 месяцев 18 дней   |    Скачан:  0 раз

Полного источника не было: Никогда

 
   
 
 
 

[Цитировать]

Дядя / Strejda
Страна: Чехословакия
Жанр: короткометражка, комедия
Годы выпуска: 1959
Продолжительность: 00:06:07
Перевод: Субтитры
Субтитры: русские, английские
Оригинальная аудиодорожка: чешский
Режиссер: Яромил Иреш / Jaromil Jireš
В ролях: Властимил Бродский, Владимир Завазал
Описание: По рассказу Милана Шимека.
История про мальчика и вора.

Доп. информация:
Качество видео: BDRip | Core_soul/BDRemux 1080p
Формат видео: AVI
Видео: 720x528 (1.36:1), 23.976 fps, XviD build 73 ~2389 kbps avg, 0.26 bit/pixel
Аудио: 48 kHz, AC3 Dolby Digital, 1/0 (C) ch, ~192 kbps
Формат субтитров: softsub (SRT)

MediaInfo

General
Complete name : C:\Strejda.1959.BDRip.Cze_by_LBS.avi
Format : AVI
Format/Info : Audio Video Interleave
File size : 113 MiB
Duration : 6mn 7s
Overall bit rate : 2 591 Kbps
Director : Last Boy Scout
Writing application : VirtualDubMod 1.5.10.3 | www.virtualdub-fr.org || (build 2550/release)
Copyright : rutracker.org 07.03.2016
Comment : BDRip Original (Cze)
Video
ID : 0
Format : MPEG-4 Visual
Format profile : Advanced Simple@L5
Format settings, BVOP : 1
Format settings, QPel : No
Format settings, GMC : No warppoints
Format settings, Matrix : Custom
Codec ID : XVID
Codec ID/Hint : XviD
Duration : 6mn 7s
Bit rate : 2 389 Kbps
Width : 720 pixels
Height : 528 pixels
Display aspect ratio : 4:3
Frame rate : 23.976 fps
Color space : YUV
Chroma subsampling : 4:2:0
Bit depth : 8 bits
Scan type : Progressive
Compression mode : Lossy
Bits/(Pixel*Frame) : 0.262
Stream size : 105 MiB (92%)
Writing library : XviD 73
Audio
ID : 1
Format : AC-3
Format/Info : Audio Coding 3
Mode extension : CM (complete main)
Format settings, Endianness : Big
Codec ID : 2000
Duration : 6mn 7s
Bit rate mode : Constant
Bit rate : 192 Kbps
Channel(s) : 1 channel
Channel positions : Front: C
Sampling rate : 48.0 KHz
Bit depth : 16 bits
Compression mode : Lossy
Stream size : 8.41 MiB (7%)
Alignment : Split accross interleaves
Interleave, duration : 42 ms (1.00 video frame)
Interleave, preload duration : 500 ms

Скриншоты

Пример субтитров

6
00:01:26,587 --> 00:01:28,589
Кто вы?
7
00:01:31,258 --> 00:01:32,718
Дядя.
8
00:01:40,809 --> 00:01:42,936
Тише! Не плачь!
9
00:01:49,901 --> 00:01:52,112
Держи. Поиграй с медвежонком.
10
00:02:09,296 --> 00:02:12,215
Он сломался.
11
00:02:12,632 --> 00:02:14,426
Не плачь!
12
00:02:15,135 --> 00:02:17,179
Поломанный.
13
00:02:36,823 --> 00:02:39,576
Дядя, сделай и мою машинку.
14
00:02:41,036 --> 00:02:43,038
Ладно, только быстрее.
15
00:02:44,748 --> 00:02:45,999
Вот.
16
00:02:46,917 --> 00:02:48,460
Колесо отвалилось.
17
00:02:48,585 --> 00:02:50,212
Посмотрим.
18
00:02:52,923 --> 00:02:55,717
Дядя, а как ты сюда зашел?
19
00:02:57,928 --> 00:03:00,222
- Через окно.
- Ты можешь летать?!
20
00:03:00,347 --> 00:03:01,807
Конечно.
21
00:03:06,561 --> 00:03:09,356
А это зачем?
22
00:03:10,065 --> 00:03:12,192
Чтобы чинить твои игрушки.
23
00:03:18,490 --> 00:03:21,076
Давай с тобой играть...
24
00:03:21,326 --> 00:03:24,955
или я опять буду плакать.
- А потом будешь вести себя тихо?
25
00:03:25,080 --> 00:03:26,748
Обещаю.
-
[teatrix.ru].t23224.torrent 
Торрент: Зарегистрирован [ 2016-03-21 00:31 ] · E47D1EC347D8E63C23CCEBA59B427C37FDC44360

Скачать .torrent

Скачать

18 KB

Статус: проверено
Скачан: 0 раз
Размер: 113 MB
terms.php



Быстрый ответ

Имя:

      
Для отправки сообщений необходимо включить JavaScript
Показать сообщения:    

Текущее время: 08-Дек 03:13

Часовой пояс: UTC + 3


Вы можете начинать темы
Вы можете отвечать на сообщения
Вы не можете редактировать свои сообщения
Вы не можете удалять свои сообщения
Вы не можете голосовать в опросах
Вы не можете прикреплять файлы к сообщениям
Вы можете скачивать файлы