(Choral music) Les Petits Chanteurs a la Croix de Bois - Choeurs - 2005, FLAC (image+.cue) lossless


Статистика раздачи [Обновить пиров]
Размер:  242 MB   |    Зарегистрирован:  8 месяцев 18 дней   |    Скачан:  0 раз

Полного источника не было: Никогда

 
   
 
 
 

[Цитировать]

Les Petits Chanteurs a la Croix de Bois - Choeurs
Жанр: Choral music
Страна-производитель диска: EEC
Год издания диска: 2005
Издатель (лейбл): Habana
Дата записи: 1933 - 1953
Номер по каталогу: 200 535
Аудиокодек: FLAC
Тип рипа: image+.cue
Битрейт аудио: lossless
Продолжительность: 00:57:00
Источник: собственный рип
Наличие сканов в содержимом раздачи: да
Треклист:
01. Nous nirons plus au bois (3:12)
02. Gentil coquelicot (2:04)
03. A la claire fontaine (2:57)
04. Chant des adieux (3:08)
05. La nuit (3:27)
06. Ave Maria (3:14)
07. Les danseurs noyes (3:17)
08. Sur le pont d Avignon (3:22)
09. Il etait un petit navire (3:15)
10. Il etait trois petits enfants (3:29)
11. Les deux cites (3:36)
12. Alouette (2:24)
13. Deep river (3:00)
14. Tutu Maramba (3:12)
15. Ah, quand reviendra t-il ? (3:08)
16. Stille nacht (douce nuit) (3:56)
17. Ne pleure pas Jeannette (3:05)
18. Do-do lenfant Do (3:11)

Исполнители:
Les Petits Chanteurs a la Croix de Bois
(The Little Singers of Paris \ Little Singers of the Wooden Cross)

Лог создания рипа

Exact Audio Copy V1.0 beta 3 from 29. August 2011
Отчёт EAC об извлечении, выполненном 5. марта 2016, 11:55
Les Petits Chanteurs a la Croix de Bois / Choeurs
Дисковод: ASUS DRW-1814BL Adapter: 1 ID: 1
Режим чтения : Достоверность
Использование точного потока : Да
Отключение кэша аудио : Да
Использование указателей C2 : Нет
Коррекция смещения при чтении : 6
Способность читать области Lead-in и Lead-out : Нет
Заполнение пропущенных сэмплов тишиной : Да
Удаление блоков с тишиной в начале и конце : Нет
При вычислениях CRC использовались нулевые сэмплы : Да
Интерфейс : Встроенный Win32-интерфейс для Win NT/2000
Выходной формат : Пользовательский кодировщик
Выбранный битрейт : 128 kBit/s
Качество : Высокий
Добавление ID3-тега : Нет
Утилита сжатия : C:\Program Files\Exact Audio Copy\Flac\flac.exe
Дополнительные параметры : -V -8 -T "Date=%year%" -T "Genre=%genre%" %source%
TOC извлечённого CD
Трек | Старт | Длительность | Начальный сектор | Конечный сектор
---------------------------------------------------------------------
1 | 0:00.00 | 3:11.45 | 0 | 14369
2 | 3:11.45 | 2:04.18 | 14370 | 23687
3 | 5:15.63 | 2:56.65 | 23688 | 36952
4 | 8:12.53 | 3:07.65 | 36953 | 51042
5 | 11:20.43 | 3:26.74 | 51043 | 66566
6 | 14:47.42 | 3:14.37 | 66567 | 81153
7 | 18:02.04 | 3:17.01 | 81154 | 95929
8 | 21:19.05 | 3:22.19 | 95930 | 111098
9 | 24:41.24 | 3:15.20 | 111099 | 125743
10 | 27:56.44 | 3:29.27 | 125744 | 141445
11 | 31:25.71 | 3:36.26 | 141446 | 157671
12 | 35:02.22 | 2:24.36 | 157672 | 168507
13 | 37:26.58 | 2:59.54 | 168508 | 181986
14 | 40:26.37 | 3:12.36 | 181987 | 196422
15 | 43:38.73 | 3:07.52 | 196423 | 210499
16 | 46:46.50 | 3:55.45 | 210500 | 228169
17 | 50:42.20 | 3:05.20 | 228170 | 242064
18 | 53:47.40 | 3:11.32 | 242065 | 256421
Характеристики диапазона извлечения и сообщения об ошибках
Выбранный диапазон
Имя файла C:\Documents and Settings\biotox\Рабочий стол\Новая папка (2)\Les Petits Chanteurs a la Croix de Bois - Choeurs.wav
Пиковый уровень 97.5 %
Скорость извлечения 7.4 X
Качество диапазона 99.9 %
CRC теста 18C9E8AD
CRC копии 18C9E8AD
Копирование... OK
Ошибок не произошло
AccurateRip: сводка
Трек 1 отсутствует в базе данных
Трек 2 отсутствует в базе данных
Трек 3 отсутствует в базе данных
Трек 4 отсутствует в базе данных
Трек 5 отсутствует в базе данных
Трек 6 отсутствует в базе данных
Трек 7 отсутствует в базе данных
Трек 8 отсутствует в базе данных
Трек 9 отсутствует в базе данных
Трек 10 отсутствует в базе данных
Трек 11 отсутствует в базе данных
Трек 12 отсутствует в базе данных
Трек 13 отсутствует в базе данных
Трек 14 отсутствует в базе данных
Трек 15 отсутствует в базе данных
Трек 16 отсутствует в базе данных
Трек 17 отсутствует в базе данных
Трек 18 отсутствует в базе данных
Ни одного трека нет в базе AccurateRip
Конец отчёта
==== Контрольная сумма отчёта 99D1D26726A235197003B5FA6718C67A7878E3F2D2FC11CEFDA6A0C4E1EE52CA ====

Замер динамического диапазона

foobar2000 1.2.9 / Замер динамического диапазона (DR) 1.1.1
Дата отчёта: 2016-03-05 14:11:49
--------------------------------------------------------------------------------
Анализ: Les Petits Chanteurs a la Croix de Bois / Choeurs
--------------------------------------------------------------------------------
DR Пики RMS Продолжительность трека
--------------------------------------------------------------------------------
DR11 -0.34 дБ -15.97 дБ 3:12 01-Nous nirons plus au bois
DR13 -0.87 дБ -17.11 дБ 2:04 02-Gentil coquelicot
DR12 -0.63 дБ -18.06 дБ 2:57 03-A la claire fontaine
DR10 -0.49 дБ -15.78 дБ 3:08 04-Chant des adieux
DR12 -0.31 дБ -17.25 дБ 3:27 05-La nuit
DR13 -1.06 дБ -19.44 дБ 3:14 06-Ave Maria
DR13 -0.91 дБ -18.68 дБ 3:17 07-Les danseurs noyes
DR12 -0.50 дБ -16.52 дБ 3:22 08-Sur le pont d Avignon
DR13 -0.59 дБ -17.15 дБ 3:15 09-Il etait un petit navire
DR13 -1.03 дБ -19.00 дБ 3:29 10-Il etait trois petits enfants
DR13 -1.35 дБ -21.36 дБ 3:36 11-Les deux cites
DR12 -0.48 дБ -16.35 дБ 2:24 12-Alouette
DR12 -0.22 дБ -19.43 дБ 3:00 13-Deep river
DR13 -1.23 дБ -19.99 дБ 3:12 14-Tutu Maramba
DR12 -0.61 дБ -17.82 дБ 3:08 15-Ah, quand reviendra t-il ?
DR11 -1.30 дБ -17.06 дБ 3:56 16-Stille nacht (douce nuit)
DR12 -1.18 дБ -17.99 дБ 3:05 17-Ne pleure pas Jeannette
DR11 -1.36 дБ -16.34 дБ 3:11 18-Do-do lenfant Do
--------------------------------------------------------------------------------
Количество треков: 18
Реальные значения DR: DR12
Частота: 44100 Гц
Каналов: 2
Разрядность: 16
Битрейт: 516 кбит/с
Кодек: FLAC
================================================================================
[teatrix.ru].t23225.torrent 
Торрент: Зарегистрирован [ 2016-03-21 00:31 ] · 5C3F23F7F7C1C5291A95C1D5B96D1B433F0C9ED6

Скачать .torrent

Скачать

20 KB

Статус: проверено
Скачан: 0 раз
Размер: 242 MB
terms.php



Быстрый ответ

Имя:

      
Для отправки сообщений необходимо включить JavaScript
Показать сообщения:    

Текущее время: 08-Дек 01:17

Часовой пояс: UTC + 3


Вы можете начинать темы
Вы можете отвечать на сообщения
Вы не можете редактировать свои сообщения
Вы не можете удалять свои сообщения
Вы не можете голосовать в опросах
Вы не можете прикреплять файлы к сообщениям
Вы можете скачивать файлы