Сохрани мою речь навсегда (Рома Либеров) [2016, Документальный, SATRip]


Статистика раздачи [Обновить пиров]
Размер:  931 MB   |    Зарегистрирован:  8 месяцев 20 дней   |    Скачан:  0 раз

Полного источника не было: Никогда

 
   
 
 
 

[Цитировать]

Сохрани мою речь навсегда- Дата/Год выпуска: 2016
Страна: Россия
Жанр: Документальный
Продолжительность: 01:20:45
Перевод: Не требуется
Русские субтитры: нет-Режиссер: Рома Либеров-Описание: Это история поэта Осипа Мандельштама, воссозданная на стыке искусств и жанров: кукольного театра, дизайна, компьютерной графики, документалистики. Бунтарский дух стихов Мандельштама прозвучал вызовом власти, и их автор был уничтожен государственной машиной — погиб в пересыльном лагере. Многое из написанного им могло не сохраниться, если бы не супруга Надежда, которая учила его произведения наизусть, переписывала вручную — в ожидании времен, когда они смогут быть опубликованы.- -качество: SATRip
формат: AVI
Видео: 720x464, 25.000 fps, XviD build 50, 1475 Кбит/с,
Аудио: 48 kHz, MPEG Layer 3, 2 ch, 128 Кбит/с- -

MediaInfo

General
Complete name : Downloads\Сохрани мою речь навсегда.SATRip.2016.avi
Format : AVI
Format/Info : Audio Video Interleave
File size : 931 MiB
Duration : 1h 20mn
Overall bit rate : 1 612 Kbps
Writing application : VirtualDubMod 1.5.10.3 | www.virtualdub-fr.org || (build 2550/release)
Writing library : VirtualDubMod build 2550/release
Video #0
ID : 0
Format : MPEG-4 Visual
Format profile : Advanced Simple@L5
Format settings, BVOP : 1
Format settings, QPel : No
Format settings, GMC : No warppoints
Format settings, Matrix : Default (H.263)
Codec ID : XVID
Codec ID/Hint : XviD
Duration : 1h 20mn
Bit rate : 1 475 Kbps
Width : 720 pixels
Height : 464 pixels
Display aspect ratio : 16:10
Frame rate : 25.000 fps
Color space : YUV
Chroma subsampling : 4:2:0
Bit depth : 8 bits
Scan type : Progressive
Compression mode : Lossy
Bits/(Pixel*Frame) : 0.177
Stream size : 852 MiB (91%)
Writing library : XviD 1.2.1 (UTC 2008-12-04)
Audio #1
ID : 1
Format : MPEG Audio
Format version : Version 1
Format profile : Layer 3
Codec ID : 55
Codec ID/Hint : MP3
Duration : 1h 20mn
Bit rate mode : Constant
Bit rate : 128 Kbps
Channel(s) : 2 channels
Sampling rate : 48.0 KHz
Compression mode : Lossy
Stream size : 73.9 MiB (8%)
Alignment : Aligned on interleaves
Interleave, duration : 40 ms (1.00 video frame)
Interleave, preload duration : 504 ms
Writing library : LAME3.99r
Encoding settings : -m s -V 4 -q 2 -lowpass 17 -b 128

Скриншоты

[teatrix.ru].t23226.torrent 
Торрент: Зарегистрирован [ 2016-03-21 00:31 ] · E2F2F07210D6FD12DF6787D0FA2C400ACDEF807B

Скачать .torrent

Скачать

19 KB

Статус: проверено
Скачан: 0 раз
Размер: 931 MB
terms.php



Быстрый ответ

Имя:

      
Для отправки сообщений необходимо включить JavaScript
Показать сообщения:    

Текущее время: 10-Дек 17:46

Часовой пояс: UTC + 3


Вы можете начинать темы
Вы можете отвечать на сообщения
Вы не можете редактировать свои сообщения
Вы не можете удалять свои сообщения
Вы не можете голосовать в опросах
Вы не можете прикреплять файлы к сообщениям
Вы можете скачивать файлы