[SACD-R][OF] Emilia Amper - Trollfageln (The Magic Bird) - 2012 (Classical / Folk)


Статистика раздачи [Обновить пиров]
Размер:  2.82 GB   |    Зарегистрирован:  8 месяцев 21 день   |    Скачан:  0 раз

Полного источника не было: Никогда

 
   
 
 
 

[Цитировать]

Emilia Amper – Trollfågeln (The Magic Bird)
Формат записи/Источник записи: [SACD-R][OF]
Наличие водяных знаков: Нет
Год издания/переиздания диска: 2012
Жанр: Classical / Folk
Издатель(лейбл): BIS Records
Продолжительность: 59:42
Наличие сканов в содержимом раздачи: Нет
Источник (релизер): SA-CD.net
Треклист:
1. Till Maria (For Maria)
2. G-mollpolska efter Anders Gustaf Jernberg (Polska in G minor after A. G. Jernberg)
3. Ut i mörka natten (Into the Dark Night)
4. Isadoras Land (Isadora's Land)
5. Trollfuglen (The Magic Bird)
6. Polska fra Hoffsmyran (Polska from Hoffsmyran)
7. Herr Lager och skön fager (Herr Lager and the Fair One)
8. Brännvinslåt från Torsås (Drinking Song from Torsås)
9. Pigopolskan / Den glömda polskan (The Maid's Polska/The Forgotten Polska)
10. När som flickorna de gifta sig (When Young Women Get Married)
11. Kapad (Hijacked)
12. Bredals Näckapolska (Näckapolska after Bredal)
13. Galatea Creek
14. Vals från Valsebo (Waltz from Valsebo)
Контейнер: ISO (*.iso)
Тип рипа: image
Разрядность: 64(2,8 MHz/1 Bit)
Формат: DST64
Количество каналов: 5.0 / 2.0

Official DR value: DR14 / DR13

foobar2000 1.3.1 / Dynamic Range Meter 1.1.1
log date: 2016-03-07 12:13:38
--------------------------------------------------------------------------------
Analyzed: Emilia Amper / Emilia Amper - Trollfuglen (The Magic Bird)
--------------------------------------------------------------------------------
DR Peak RMS Duration Track
--------------------------------------------------------------------------------
DR13 -12.36 dB -33.76 dB 5:01 01-Till Maria (For Maria)
DR13 -9.22 dB -32.20 dB 3:27 02-Polska in G minor after A. G. Jernberg
DR15 -8.50 dB -29.94 dB 4:58 03-Ut i mцrka natten (Into the Dark Night)
DR15 -7.92 dB -29.46 dB 3:53 04-Isadoras land (Isadora's Land)
DR12 -13.85 dB -33.22 dB 2:26 05-Trollfuglen (The Magic Bird)
DR14 -7.05 dB -30.64 dB 4:04 06-Polska fra Hoffsmyran (Polska from Hoffsmyran)
DR14 -5.90 dB -29.29 dB 3:12 07-Herr Lager och skцn fager (Herr Lager and the fair one)
DR12 -16.48 dB -37.18 dB 2:43 08-Drinking Song from Torsеs
DR13 -9.45 dB -31.09 dB 5:10 09-The Maid's Polska / The Forgotten Polska
DR14 -7.74 dB -29.88 dB 4:10 10-When Young Women Get Married
DR15 -5.80 dB -27.55 dB 4:47 11-Kapad (Hijacked)
DR13 -10.06 dB -31.58 dB 3:02 12-Bredals Nдckapolska (Nдckapolska after Bredal)
DR16 -5.99 dB -28.35 dB 3:21 13-Galatea Creek
DR12 -8.38 dB -30.12 dB 9:29 14-Vals frеn Valsebo ( Waltz from Valsebo )
--------------------------------------------------------------------------------
Number of tracks: 14
Official DR value: DR14
Samplerate: 2822400 Hz / PCM Samplerate: 88200 Hz
Channels: 5
Bits per sample: 24
Bitrate: 14112 kbps
Codec: DST64
================================================================================
--------------------------------------------------------------------------------
Analyzed: Emilia Amper / Emilia Amper - Trollfuglen (The Magic Bird)
--------------------------------------------------------------------------------
DR Peak RMS Duration Track
--------------------------------------------------------------------------------
DR12 -10.94 dB -28.62 dB 5:01 01-Till Maria (For Maria)
DR12 -10.93 dB -27.23 dB 3:27 02-Polska in G minor after A. G. Jernberg
DR12 -8.77 dB -25.93 dB 4:58 03-Ut i mцrka natten (Into the Dark Night)
DR13 -8.31 dB -24.72 dB 3:53 04-Isadoras land (Isadora's Land)
DR11 -12.99 dB -27.98 dB 2:26 05-Trollfuglen (The Magic Bird)
DR14 -8.53 dB -26.87 dB 4:04 06-Polska fra Hoffsmyran (Polska from Hoffsmyran)
DR15 -6.98 dB -26.48 dB 3:12 07-Herr Lager och skцn fager (Herr Lager and the fair one)
DR11 -14.92 dB -31.41 dB 2:43 08-Drinking Song from Torsеs
DR12 -9.90 dB -26.69 dB 5:10 09-The Maid's Polska / The Forgotten Polska
DR13 -8.60 dB -26.01 dB 4:10 10-When Young Women Get Married
DR13 -6.79 dB -23.44 dB 4:47 11-Kapad (Hijacked)
DR12 -11.65 dB -26.46 dB 3:02 12-Bredals Nдckapolska (Nдckapolska after Bredal)
DR14 -6.03 dB -24.19 dB 3:21 13-Galatea Creek
DR12 -10.07 dB -26.74 dB 9:29 14-Vals frеn Valsebo ( Waltz from Valsebo )
--------------------------------------------------------------------------------
Number of tracks: 14
Official DR value: DR13
Samplerate: 2822400 Hz / PCM Samplerate: 88200 Hz
Channels: 2
Bits per sample: 24
Bitrate: 5645 kbps
Codec: DST64
================================================================================

Состав

TrondheimSolistene - strings
Johan Hedin - nyckelharpa
Emilia Amper - nyckelharpa
Dan Svensson - vocals
Emilia Amper - vocals
Dan Svensson - percussion
Helge Andreas Norbakken - percussion
Olle Linder - percussion
Olle Linder - guitar
Dan Svensson - guitar
[teatrix.ru].t23230.torrent 
Торрент: Зарегистрирован [ 2016-03-21 00:31 ] · 186147EC72C352C454EBD147F89E73A674F24E6C

Скачать .torrent

Скачать

29 KB

Статус: проверено
Скачан: 0 раз
Размер: 2.82 GB
terms.php



Быстрый ответ

Имя:

      
Для отправки сообщений необходимо включить JavaScript
Показать сообщения:    

Текущее время: 11-Дек 11:06

Часовой пояс: UTC + 3


Вы можете начинать темы
Вы можете отвечать на сообщения
Вы не можете редактировать свои сообщения
Вы не можете удалять свои сообщения
Вы не можете голосовать в опросах
Вы не можете прикреплять файлы к сообщениям
Вы можете скачивать файлы