Вагнер - Летучий голландец (Нидерландская опера; Мартин Кузей, Хартман Хаенчен) / Wagner - Der fliegende Hollander (Nederlandse Opera; Martin Kusej, Hartmut Haenchen; Lloyd, Naglestad, Jentzsch, Prudenskaja, Ringelhahn) [2010, Opera, Blu-ray 1080


 

[Цитировать]

Вагнер - Летучий голландец / Wagner - Der fliegende Holländer
Год выпуска: 2010
Лейбл: Opus Arte, De Nederlandse Opera
Страна-производитель: США, Нидерланды
Жанр: Opera
Продолжительность: 02:24:38
Язык: Немецкий
Субтитры: Английские, немецкие, французские, испанские, датские
Режиссер: Martin Kušej (Мартин Кузей)
Дирижер: Hartmut Haenchen (Хартман Хаенчен)
Исполнители:
Robert Lloyd (Роберт Ллойд) - Daland,
Catherine Naglestad (Катерина Наглестад) - Senta,
Marco Jentzsch (Марко Йентч) - Erik,
Marina Prudenskaja (Marina Prudenskaja) - Mary,
Oliver Ringelhahn (Олифер Рингельхан) - Daland's Steersman,
Juha Uusitalo (Юха Ууситало) - Der Hollander (The Dutchman)
Описание: Весной 1839 года, во время путешествия в Лондон из Риги, откуда Вагнер был вынужден тайно бежать, спасаясь от кредиторов, судно "Фетида" попало в Северном море в многодневный встречный шторм, так что капитан был вынужден укрыться в одном из норвежских фьордов. "Несказанное ощущение благополучия охватило меня, когда эхо oт колоссальных гранитных стен подхватило восклицание, с которым команда опускала якорь и поднимала паруса. Это восклицание с его коротким ритмом запечатлелось в моей памяти как утешительное предзнаменование — из него сложилась тема матросской песни в "Летучем голландце", с замыслом которого я носился уже и тогда; именно в те дни этот замысел под влиянием только что полученных впечатлений обрел конкретный поэтически-музыкальный оттенок", - писал впоследствии Вагнер в своих мемуарах.
Источниками сюжета оперы послужили морские легенды о Летучем Голландце, которые в начале XIX века пленяли воображение многих писателей и поэтов-романтиков. Вагнер, возможно, читал написанную в 1825 году сказку Вильгельма Гауфа "История о корабле-призраке" и сам слушал рассказы моряков, однако более всего привлекла его внимание версия легенды, предложенная Генрихом Гейне в веселой новелле "Из мемуаров господина фон Шнабелевопского", опубликованной в 1834 г. Вдохновленный новыми впечатлениями, в Париже Вагнер быстро написал либретто на этот сюжет, однако далее работа над оперой приостановилась почти на два года. Крайняя нужда даже заставила его продать либретто другому композитору. Однако летом 1841 года, в деревне Медон под Парижем, Вагнер возвращается к этому замыслу и за семь недель пишет партитуру "Летучего Голландца".
Премьера "Летучего Голландца" состоялась в Дрездене 2 января 1843 года, однако не принесла автору такого успеха, на который он рассчитывал, особенно в сравнении с шумным успехом его предыдущей оперы "Риенцы". Первые слушатели не поняли и не приняли новую оперу именно по тем причинам, по которым сейчас "Летучий Голландец", в отличие от "Риенцы", занимает законное место в списке "настоящих" вагнеровских опер: в этом произведении автор впервые обрел ясные черты своего неповторимого стиля и заговорил со зрителем своим собственным языком, так отличавшимся от всего, к чему привыкла тогдашняя публика. Как писал он сам, "ни у одного артиста жизнь не представляла такого — единственного в своем роде — примера полной трансформации, совершившейся в такой небольшой промежуток времени"...

Оригинальное описание

Austrian director Martin Kušej's pioneering vision brings a challenging and provoking insight to Wagner's opera of love and redemption, with his singular ability to connect characters and their actions to the score.
Martin Zehetgruber's spacious, multilayered set define the settings through which Daland (Robert Lloyd), Senta (Catherine Naglestad), The Dutchman (Juha Uusitalo) and the chorus move to great effect fulfilling the fine conducting of Hartmut Haenchen, who elicits from the orchestra an unmatchable performance of detail and clarity. (Opus Arte)
Recorded live at De Nederlandse Opera, 16 and 25 February 2010.
Бонус:
1. Insights and interviews (00:22:12)
2. Cast gallery (00:00:32)
Об опере
Качество видео: Blu-ray
Формат/Контейнер: BDMV
Видео кодек: MPEG4
Аудио кодек: LPCM, DTS
Видео поток: 1920x1080i, MPEG-4 Video, 29.970 fps, 16:9, 29003 kbps
Аудио поток 1: LPCM, 2 ch, 48 kHz, 24-bit, 2304 kbps
Аудио поток 2: DTS-HD MA, 5 ch, 48 kHz, 48-bit, 3869 kbps (DTS Core: 5.0 / 48 kHz / 1509 kbps / 24-bit)

BD-Info

Disc Title: Вагнер - Летучий голландец (De Nederlandse Opera) (2010) (Blu-ray 1080i, AVC, DTS-HD 5.0)
Disc Size: 43 769 359 141 bytes
Protection: AACS
BD-Java: No
BDInfo: 0.5.8
Notes:
BDINFO HOME:
Cinema Squid
http://www.cinemasquid.com/blu-ray/tools/bdinfo
INCLUDES FORUMS REPORT FOR:
AVS Forum Blu-ray Audio and Video Specifications Thread
http://www.avsforum.com/avs-vb/showthread.php?t=1155731
********************
PLAYLIST: 00002.MPLS
********************
<--- BEGIN FORUMS PASTE --->
Total   Video
Title                                                           Codec   Length  Movie Size      Disc Size       Bitrate Bitrate Main Audio Track                          Secondary Audio Track
-----                                                           ------  ------- --------------  --------------  ------- ------- ------------------                        ---------------------
00002.MPLS                                                      AVC     2:24:38 40 380 850 176  43 769 359 141  37,22   29,00   DTS-HD Master 5.0 3869Kbps (48kHz/24-bit) LPCM 2.0 2304Kbps (48kHz/24-bit)
DISC INFO:
[br]
Disc Title:     Вагнер - Летучий голландец (De Nederlandse Opera) (2010) (Blu-ray 1080i, AVC, DTS-HD 5.0)
Disc Size:      43 769 359 141 bytes
Protection:     AACS
BD-Java:        No
BDInfo:         0.5.8
[br]
PLAYLIST REPORT:
[br]
Name:                   00002.MPLS
Length:                 2:24:38.703 (h:m:s.ms)
Size:                   40 380 850 176 bytes
Total Bitrate:          37,22 Mbps
[br]
VIDEO:
[br]
Codec                   Bitrate             Description
-----                   -------             -----------
MPEG-4 AVC Video        29003 kbps          1080i / 29,970 fps / 16:9 / High Profile 4.1
[br]
AUDIO:
[br]
Codec                           Language        Bitrate         Description
-----                           --------        -------         -----------
DTS-HD Master Audio             German          3869 kbps       5.0 / 48 kHz / 3869 kbps / 24-bit (DTS Core: 5.0 / 48 kHz / 1509 kbps / 24-bit)
LPCM Audio                      German          2304 kbps       2.0 / 48 kHz / 2304 kbps / 24-bit
[br]
SUBTITLES:
[br]
Codec                           Language        Bitrate         Description
-----                           --------        -------         -----------
Presentation Graphics           English         22,658 kbps
Presentation Graphics           French          21,479 kbps
Presentation Graphics           German          24,198 kbps
Presentation Graphics           Spanish         23,922 kbps
Presentation Graphics           Dutch           20,646 kbps
[br]
FILES:
[br]
Name            Time In         Length          Size            Total Bitrate
----            -------         ------          ----            -------------
00005.M2TS      0:00:00.000     2:24:38.703     40 380 850 176  37 223
[br]
CHAPTERS:
[br]
Number          Time In         Length          Avg Video Rate  Max 1-Sec Rate  Max 1-Sec Time  Max 5-Sec Rate  Max 5-Sec Time  Max 10Sec Rate  Max 10Sec Time  Avg Frame Size  Max Frame Size  Max Frame Time
------          -------         ------          --------------  --------------  --------------  --------------  --------------  --------------  --------------  --------------  --------------  --------------
1               0:00:00.000     0:01:51.744     26 918 kbps     31 137 kbps     00:01:50.276    28 525 kbps     00:01:46.739    27 771 kbps     00:01:41.734    112 238 bytes   211 994 bytes   00:00:10.543
2               0:01:51.744     0:10:48.080     30 071 kbps     55 989 kbps     00:09:08.948    37 982 kbps     00:10:58.524    36 873 kbps     00:10:58.524    125 421 bytes   360 321 bytes   00:09:09.015
3               0:12:39.825     0:09:50.623     29 343 kbps     39 449 kbps     00:13:53.632    32 908 kbps     00:12:45.931    31 587 kbps     00:19:02.040    122 383 bytes   388 041 bytes   00:15:34.533
4               0:22:30.449     0:05:46.079     28 961 kbps     43 844 kbps     00:25:31.830    32 245 kbps     00:25:30.695    30 173 kbps     00:24:48.620    120 792 bytes   452 013 bytes   00:25:32.664
5               0:28:16.528     0:06:40.399     28 830 kbps     39 155 kbps     00:31:22.513    31 443 kbps     00:34:08.012    30 317 kbps     00:31:22.313    120 244 bytes   351 479 bytes   00:31:47.705
6               0:34:56.928     0:09:08.714     28 628 kbps     36 226 kbps     00:35:58.322    31 153 kbps     00:35:29.360    30 074 kbps     00:35:24.422    119 404 bytes   454 551 bytes   00:36:23.548
7               0:44:05.643     0:07:23.309     28 805 kbps     37 892 kbps     00:51:21.144    31 681 kbps     00:51:18.241    30 436 kbps     00:51:14.838    120 142 bytes   433 111 bytes   00:44:07.344
8               0:51:28.952     0:04:14.120     28 884 kbps     37 078 kbps     00:54:52.555    31 748 kbps     00:51:36.993    30 127 kbps     00:51:36.259    120 470 bytes   361 573 bytes   00:53:46.556
9               0:55:43.073     0:08:16.696     28 872 kbps     39 489 kbps     01:01:09.866    33 228 kbps     00:58:20.964    31 832 kbps     01:00:17.780    120 421 bytes   469 988 bytes   00:57:26.176
10              1:03:59.769     0:10:02.668     28 755 kbps     39 002 kbps     01:13:44.319    34 323 kbps     01:12:25.240    31 096 kbps     01:13:42.851    119 931 bytes   368 842 bytes   01:04:33.069
11              1:14:02.438     0:06:50.076     28 728 kbps     36 334 kbps     01:14:04.673    31 644 kbps     01:14:04.673    30 128 kbps     01:14:04.673    119 820 bytes   335 282 bytes   01:19:25.193
12              1:20:52.514     0:06:10.470     28 816 kbps     35 882 kbps     01:24:56.591    31 426 kbps     01:25:13.942    30 090 kbps     01:26:34.722    120 188 bytes   300 381 bytes   01:25:46.341
13              1:27:02.984     0:01:41.301     28 937 kbps     38 424 kbps     01:27:23.538    33 994 kbps     01:27:55.837    31 675 kbps     01:27:21.002    120 692 bytes   312 020 bytes   01:27:45.927
14              1:28:44.285     0:05:16.716     29 256 kbps     40 586 kbps     01:33:12.887    37 297 kbps     01:33:39.947    35 446 kbps     01:33:36.077    122 022 bytes   342 034 bytes   01:30:46.340
15              1:34:01.002     0:07:28.347     28 698 kbps     39 712 kbps     01:37:16.797    37 717 kbps     01:37:14.929    35 954 kbps     01:37:13.127    119 693 bytes   341 203 bytes   01:36:45.666
16              1:41:29.349     0:07:47.400     28 771 kbps     37 164 kbps     01:41:32.786    31 482 kbps     01:48:49.656    30 840 kbps     01:48:49.389    119 998 bytes   385 671 bytes   01:48:33.740
17              1:49:16.750     0:02:47.600     28 168 kbps     50 330 kbps     01:51:09.195    35 541 kbps     01:51:09.029    32 332 kbps     01:51:09.029    117 482 bytes   330 230 bytes   01:50:05.832
18              1:52:04.350     0:03:39.719     31 417 kbps     46 841 kbps     01:53:35.275    38 026 kbps     01:53:19.759    36 998 kbps     01:53:14.721    131 036 bytes   512 256 bytes   01:53:38.978
19              1:55:44.070     0:05:38.638     30 240 kbps     48 708 kbps     01:59:51.684    36 961 kbps     02:00:19.779    35 212 kbps     01:59:11.777    126 126 bytes   499 103 bytes   02:00:22.748
20              2:01:22.708     0:03:22.869     29 143 kbps     38 536 kbps     02:03:26.098    33 246 kbps     02:03:05.211    31 936 kbps     02:03:03.943    121 552 bytes   418 377 bytes   02:01:41.060
21              2:04:45.578     0:02:27.914     28 662 kbps     36 617 kbps     02:06:40.025    32 571 kbps     02:05:58.651    30 357 kbps     02:05:54.914    119 545 bytes   472 101 bytes   02:06:31.016
22              2:07:13.492     0:11:39.131     28 344 kbps     36 780 kbps     02:10:25.918    31 535 kbps     02:10:41.900    29 973 kbps     02:10:19.845    118 218 bytes   469 544 bytes   02:07:25.270
23              2:18:52.624     0:05:46.079     28 969 kbps     36 013 kbps     02:20:05.730    32 328 kbps     02:20:02.260    31 191 kbps     02:20:02.927    120 838 bytes   341 974 bytes   02:21:55.874
[br]
STREAM DIAGNOSTICS:
[br]
File            PID             Type            Codec           Language                Seconds                 Bitrate                 Bytes           Packets
----            ---             ----            -----           --------                --------------          --------------          -------------   -----
00005.M2TS      4113 (0x1011)   0x1B            AVC                                     8678,637                29 003                  31 463 418 898  171 279 172
00005.M2TS      4352 (0x1100)   0x86            DTS-HD MA       deu (German)            8678,637                3 869                   4 197 008 036   24 162 477
00005.M2TS      4353 (0x1101)   0x80            LPCM            deu (German)            8678,637                2 310                   2 506 410 004   13 885 928
00005.M2TS      4608 (0x1200)   0x90            PGS             eng (English)           8678,637                23                      24 580 522      140 213
00005.M2TS      4609 (0x1201)   0x90            PGS             fra (French)            8678,637                21                      23 300 922      133 261
00005.M2TS      4610 (0x1202)   0x90            PGS             deu (German)            8678,637                24                      26 251 025      149 308
00005.M2TS      4611 (0x1203)   0x90            PGS             spa (Spanish)           8678,637                24                      25 951 065      147 683
00005.M2TS      4612 (0x1204)   0x90            PGS             nld (Dutch)             8678,637                21                      22 397 368      128 112
<---- END FORUMS PASTE ---->
QUICK SUMMARY:
Disc Title: Вагнер - Летучий голландец (De Nederlandse Opera) (2010) (Blu-ray 1080i, AVC, DTS-HD 5.0)
Disc Size: 43 769 359 141 bytes
Protection: AACS
BD-Java: No
Playlist: 00002.MPLS
Size: 40 380 850 176 bytes
Length: 2:24:38.703
Total Bitrate: 37,22 Mbps
Video: MPEG-4 AVC Video / 29003 kbps / 1080i / 29,970 fps / 16:9 / High Profile 4.1
Audio: German / DTS-HD Master Audio / 5.0 / 48 kHz / 3869 kbps / 24-bit (DTS Core: 5.0 / 48 kHz / 1509 kbps / 24-bit)
Audio: German / LPCM Audio / 2.0 / 48 kHz / 2304 kbps / 24-bit
Subtitle: English / 22,658 kbps
Subtitle: French / 21,479 kbps
Subtitle: German / 24,198 kbps
Subtitle: Spanish / 23,922 kbps
Subtitle: Dutch / 20,646 kbps
********************
PLAYLIST: 00004.MPLS
********************
<--- BEGIN FORUMS PASTE --->
Total   Video
Title                                                           Codec   Length  Movie Size      Disc Size       Bitrate Bitrate Main Audio Track                          Secondary Audio Track
-----                                                           ------  ------- --------------  --------------  ------- ------- ------------------                        ---------------------
00004.MPLS                                                      AVC     0:22:12 3 139 061 760   43 769 359 141  18,85   15,97   LPCM 2.0 1536Kbps (48kHz/16-bit)
DISC INFO:
[br]
Disc Title:     Вагнер - Летучий голландец (De Nederlandse Opera) (2010) (Blu-ray 1080i, AVC, DTS-HD 5.0)
Disc Size:      43 769 359 141 bytes
Protection:     AACS
BD-Java:        No
BDInfo:         0.5.8
[br]
PLAYLIST REPORT:
[br]
Name:                   00004.MPLS
Length:                 0:22:12.364 (h:m:s.ms)
Size:                   3 139 061 760 bytes
Total Bitrate:          18,85 Mbps
[br]
VIDEO:
[br]
Codec                   Bitrate             Description
-----                   -------             -----------
MPEG-4 AVC Video        15972 kbps          1080i / 29,970 fps / 16:9 / High Profile 4.1
[br]
AUDIO:
[br]
Codec                           Language        Bitrate         Description
-----                           --------        -------         -----------
LPCM Audio                      English         1536 kbps       2.0 / 48 kHz / 1536 kbps / 16-bit
[br]
SUBTITLES:
[br]
Codec                           Language        Bitrate         Description
-----                           --------        -------         -----------
Presentation Graphics           English         56,388 kbps
Presentation Graphics           French          53,588 kbps
Presentation Graphics           German          53,323 kbps
Presentation Graphics           Spanish         55,182 kbps
Presentation Graphics           English         0,001 kbps
[br]
FILES:
[br]
Name            Time In         Length          Size            Total Bitrate
----            -------         ------          ----            -------------
00007.M2TS      0:00:00.000     0:22:12.364     3 139 061 760   18 848
[br]
CHAPTERS:
[br]
Number          Time In         Length          Avg Video Rate  Max 1-Sec Rate  Max 1-Sec Time  Max 5-Sec Rate  Max 5-Sec Time  Max 10Sec Rate  Max 10Sec Time  Avg Frame Size  Max Frame Size  Max Frame Time
------          -------         ------          --------------  --------------  --------------  --------------  --------------  --------------  --------------  --------------  --------------  --------------
1               0:00:00.000     0:01:32.525     13 608 kbps     28 587 kbps     00:01:04.297    22 534 kbps     00:01:09.502    22 412 kbps     00:01:04.297    56 736 bytes    286 804 bytes   00:01:04.330
2               0:01:32.525     0:01:55.281     13 851 kbps     17 813 kbps     00:03:12.392    16 728 kbps     00:03:08.655    16 163 kbps     00:03:07.554    57 768 bytes    192 820 bytes   00:01:47.740
3               0:03:27.807     0:01:45.038     15 593 kbps     28 204 kbps     00:05:11.611    21 525 kbps     00:05:07.840    20 666 kbps     00:05:02.835    65 036 bytes    222 989 bytes   00:04:56.763
4               0:05:12.845     0:00:56.956     13 596 kbps     19 311 kbps     00:05:19.385    16 999 kbps     00:05:17.984    16 512 kbps     00:05:17.583    56 708 bytes    293 965 bytes   00:06:09.736
5               0:06:09.802     0:01:58.251     19 599 kbps     26 130 kbps     00:07:33.853    24 197 kbps     00:07:31.150    23 226 kbps     00:06:25.284    81 744 bytes    295 347 bytes   00:07:49.936
6               0:08:08.054     0:02:40.527     18 096 kbps     26 749 kbps     00:08:35.748    24 402 kbps     00:08:32.545    22 314 kbps     00:08:32.745    75 477 bytes    229 648 bytes   00:10:28.361
7               0:10:48.581     0:01:52.912     16 964 kbps     25 814 kbps     00:12:38.124    23 144 kbps     00:12:25.811    22 640 kbps     00:12:25.878    70 755 bytes    260 760 bytes   00:10:49.415
8               0:12:41.494     0:02:38.057     15 444 kbps     22 422 kbps     00:12:58.544    21 265 kbps     00:12:55.975    20 936 kbps     00:12:52.438    64 416 bytes    236 175 bytes   00:14:32.004
9               0:15:19.551     0:02:53.006     17 141 kbps     26 088 kbps     00:16:58.917    23 340 kbps     00:16:58.917    22 785 kbps     00:16:58.917    71 492 bytes    267 155 bytes   00:17:47.533
10              0:18:12.558     0:01:28.721     17 095 kbps     25 083 kbps     00:18:54.433    22 963 kbps     00:18:54.433    22 702 kbps     00:19:06.278    71 300 bytes    224 260 bytes   00:19:06.578
11              0:19:41.280     0:02:31.084     12 915 kbps     20 606 kbps     00:20:25.991    15 883 kbps     00:22:00.152    15 564 kbps     00:21:13.038    53 879 bytes    241 444 bytes   00:20:26.024
[br]
STREAM DIAGNOSTICS:
[br]
File            PID             Type            Codec           Language                Seconds                 Bitrate                 Bytes           Packets
----            ---             ----            -----           --------                --------------          --------------          -------------   -----
00007.M2TS      4113 (0x1011)   0x1B            AVC                                     1332,298                15 973                  2 660 089 438   14 500 309
00007.M2TS      4352 (0x1100)   0x80            LPCM            eng (English)           1332,298                1 542                   256 879 972     1 598 838
00007.M2TS      4608 (0x1200)   0x90            PGS             eng (English)           1332,298                56                      9 391 146       52 976
00007.M2TS      4609 (0x1201)   0x90            PGS             fra (French)            1332,298                54                      8 924 837       50 442
00007.M2TS      4610 (0x1202)   0x90            PGS             deu (German)            1332,298                53                      8 880 652       50 170
00007.M2TS      4611 (0x1203)   0x90            PGS             spa (Spanish)           1332,298                55                      9 190 297       51 889
00007.M2TS      4612 (0x1204)   0x90            PGS             eng (English)           1332,298                0                       165             8
<---- END FORUMS PASTE ---->
QUICK SUMMARY:
Disc Title: Вагнер - Летучий голландец (De Nederlandse Opera) (2010) (Blu-ray 1080i, AVC, DTS-HD 5.0)
Disc Size: 43 769 359 141 bytes
Protection: AACS
BD-Java: No
Playlist: 00004.MPLS
Size: 3 139 061 760 bytes
Length: 0:22:12.364
Total Bitrate: 18,85 Mbps
Video: MPEG-4 AVC Video / 15972 kbps / 1080i / 29,970 fps / 16:9 / High Profile 4.1
Audio: English / LPCM Audio / 2.0 / 48 kHz / 1536 kbps / 16-bit
Subtitle: English / 56,388 kbps
Subtitle: French / 53,588 kbps
Subtitle: German / 53,323 kbps
Subtitle: Spanish / 55,182 kbps
Subtitle: English / 0,001 kbps
********************
PLAYLIST: 00003.MPLS
********************
<--- BEGIN FORUMS PASTE --->
Total   Video
Title                                                           Codec   Length  Movie Size      Disc Size       Bitrate Bitrate Main Audio Track                          Secondary Audio Track
-----                                                           ------  ------- --------------  --------------  ------- ------- ------------------                        ---------------------
00003.MPLS                                                      AVC     0:00:32 20 901 888      43 769 359 141  5,21    4,92
DISC INFO:
[br]
Disc Title:     Вагнер - Летучий голландец (De Nederlandse Opera) (2010) (Blu-ray 1080i, AVC, DTS-HD 5.0)
Disc Size:      43 769 359 141 bytes
Protection:     AACS
BD-Java:        No
BDInfo:         0.5.8
[br]
PLAYLIST REPORT:
[br]
Name:                   00003.MPLS
Length:                 0:00:32.065 (h:m:s.ms)
Size:                   20 901 888 bytes
Total Bitrate:          5,21 Mbps
[br]
VIDEO:
[br]
Codec                   Bitrate             Description
-----                   -------             -----------
MPEG-4 AVC Video        4921 kbps           1080i / 29,970 fps / 16:9 / High Profile 4.1
[br]
FILES:
[br]
Name            Time In         Length          Size            Total Bitrate
----            -------         ------          ----            -------------
00006.M2TS      0:00:00.000     0:00:32.065     20 901 888      5 215
[br]
CHAPTERS:
[br]
Number          Time In         Length          Avg Video Rate  Max 1-Sec Rate  Max 1-Sec Time  Max 5-Sec Rate  Max 5-Sec Time  Max 10Sec Rate  Max 10Sec Time  Avg Frame Size  Max Frame Size  Max Frame Time
------          -------         ------          --------------  --------------  --------------  --------------  --------------  --------------  --------------  --------------  --------------  --------------
1               0:00:00.000     0:00:07.006     5 707 kbps      14 652 kbps     00:00:01.000    5 318 kbps      00:00:01.201    0 kbps          00:00:00.000    23 691 bytes    326 880 bytes   00:00:05.004
2               0:00:07.006     0:00:05.004     4 955 kbps      14 116 kbps     00:00:11.010    4 955 kbps      00:00:07.006    0 kbps          00:00:00.000    20 665 bytes    352 655 bytes   00:00:12.011
3               0:00:12.011     0:00:05.005     5 377 kbps      14 027 kbps     00:00:15.982    5 377 kbps      00:00:12.012    0 kbps          00:00:00.000    22 427 bytes    352 561 bytes   00:00:14.014
4               0:00:17.017     0:00:05.004     5 181 kbps      14 070 kbps     00:00:20.987    5 181 kbps      00:00:17.017    0 kbps          00:00:00.000    21 611 bytes    343 277 bytes   00:00:18.018
5               0:00:22.022     0:00:05.004     4 946 kbps      13 615 kbps     00:00:25.992    4 946 kbps      00:00:22.022    0 kbps          00:00:00.000    20 628 bytes    328 805 bytes   00:00:23.023
6               0:00:27.027     0:00:05.038     3 058 kbps      7 773 kbps      00:00:30.330    3 078 kbps      00:00:27.027    0 kbps          00:00:00.000    12 839 bytes    281 020 bytes   00:00:31.030
[br]
STREAM DIAGNOSTICS:
[br]
File            PID             Type            Codec           Language                Seconds                 Bitrate                 Bytes           Packets
----            ---             ----            -----           --------                --------------          --------------          -------------   -----
00006.M2TS      4113 (0x1011)   0x1B            AVC                                     31,999                  4 931                   19 724 421      107 787
<---- END FORUMS PASTE ---->
QUICK SUMMARY:
Disc Title: Вагнер - Летучий голландец (De Nederlandse Opera) (2010) (Blu-ray 1080i, AVC, DTS-HD 5.0)
Disc Size: 43 769 359 141 bytes
Protection: AACS
BD-Java: No
Playlist: 00003.MPLS
Size: 20 901 888 bytes
Length: 0:00:32.065
Total Bitrate: 5,21 Mbps
Video: MPEG-4 AVC Video / 4921 kbps / 1080i / 29,970 fps / 16:9 / High Profile 4.1

Скриншоты


Скриншоты доп. материалов





Показать сообщения:    

Текущее время: 10-Дек 00:22

Часовой пояс: UTC + 3


Вы не можете начинать темы
Вы не можете отвечать на сообщения
Вы не можете редактировать свои сообщения
Вы не можете удалять свои сообщения
Вы не можете голосовать в опросах
Вы не можете прикреплять файлы к сообщениям
Вы не можете скачивать файлы