Национальный музей Прадо. Гойя во времена войны / Museo Naсional del Prado. Goya en tiempos de guerra (Хосе Луис Лопес-Линарес / Jose Luis Lopez-Linares) [2008, документальный, история искусств, DVB] DVO (Ред Медиа)


Статистика раздачи [Обновить пиров]
Размер:  668 MB   |    Зарегистрирован:  8 месяцев 14 дней   |    Скачан:  0 раз

Полного источника не было: Никогда

 
   
 
 
 

[Цитировать]

Национальный музей Прадо. Гойя во времена войны
Museo Naсional del Prado. Goya en tiempos de guerra- Дата/Год выпуска: 2008
Страна: Испания
Жанр: документальный, история искусств
Продолжительность: 00:35:26
Перевод: Профессиональный (двухголосый закадровый)
Доп. инфо о переводе: ТПО "Ред Медиа"
Русские субтитры: нет
Режиссер: Хосе Луис Лопес-Линарес / José Luis López-Linares
Телеканал: 365 днейОписание: 200-летнюю годовщину нашествия французов и начала испанской войны за независимость, увековеченные в искусстве ужасы Прадо встречает выставкой Франсиско Гойи, заявленной как главное музейное событие весны. В Мадриде были показаны работы позднего периода творчества художника: с 1790-х по 1819 год (дата создания его последней "общественной" картины "Последнее причастие Сан Хосе де Каласанса").
Придворный живописец Карлоса IV, он презирал короля, но ужаснулся бесчинствам войны, принесенным французами. И создал одни из первых исторических картин на современный сюжет: "Восстание Пуэрто дель Соль 2 мая 1808 года" и "Расстрел мадридских повстанцев в ночь на 3 мая 1808 года". Именно эти произведения находятся в центре внимания настоящей экспозиции. Лишенная торжественной величавости исторического полотна, почти эскизная манера письма кажется более объективной для отражения событий войны. В то же время зритель увидит знаменитый "Портрет Карлоса IV с семьей", где за традиционной парадной схемой прочитывается не почтение, а скорее равнодушие или даже усмешка. Среди широко известных произведений Гойи выставлены и "Капричос", офорты с комментариями на тему абсурдности порядков и нравов вокруг. Про эту серию Бодлер писал, что "большая заслуга Гойи заключается в правдоподобии созданного им чудовищного мира - никто не посмел дальше, чем он, пойти по пути возможного абсурда. Все эти искривленные фигуры, эти зверские лица, эти дьявольские гримасы пронизаны человечностью".
Одна из задач выставки: внимательнее проследить взаимосвязь жизни Гойи тех лет и созданных им идей и образов. В тот период он перенес две тяжелые болезни и потерял слух. Изменилась и его художественная манера - вместо колористической утонченности появилась контрастность, подчас нарочитая резкость как выражение большей свободы. В итоге же Гойя связал классическое искусство прошлого с новым искусством XIX века: Эль Греко, Веласкеса и Рембрандта с Жерико, Делакруа и Домье.
Доп. информация: Eutelsat 36B (W7) DVB-S

качество: DVB
формат: MKV
Видео: MPEG Video 2, 720x576 (4:3), 25 fps, ~2390 kbps avg, 0.231 bit/pixel
Аудио: MPEG Audio 2, 2 ch, 48 kHz, 192 kbps

Информация по редактированию

Topfield SRP-2410 – запись спутниковой трансляции DVB-S (.rec)
ProjectX 0.91.0.10 - разбор контейнера, удаление рекламы и доп. информации
MKVToolNix GUI 8.8.0 – сборка в контейнер MKV
MkvTagger – редактирование тегов

MediaInfo

General
Unique ID : 184352806689315210692425967076627123354 (0x8AB10F1F7081A764BCC39DD4BCEF0C9A)
Complete name : [apreder]Goya_en_tiempos_de_guerra(2008)DVB.mkv
Format : Matroska
Format version : Version 2
File size : 668 MiB
Duration : 35mn 26s
Overall bit rate mode : Variable
Overall bit rate : 2 635 Kbps
Movie name : Goya en tiempos de guerra
Released date : 2008-00-00
Encoded date : UTC 2016-03-07 12:41:05
Writing application : mkvmerge v8.9.0 ('Father Daughter') 64bit
Writing library : libebml v1.3.3 + libmatroska v1.4.4
Cover : Yes
Attachments : cover.jpg / cover_small.jpg
DIRECTOR : Josй Luis Lуpez-Linares
GENRE : Documentary
KEYWORDS : rutracker.org
LAW_RATING : 12+
Video
ID : 1
Format : MPEG Video
Format version : Version 2
Format profile : Main@Main
Format settings, BVOP : Yes
Format settings, Matrix : Custom
Format settings, GOP : M=3, N=36
Format settings, picture structure : Frame
Codec ID : V_MPEG2
Codec ID/Info : MPEG 1 or 2 Video
Duration : 35mn 26s
Bit rate mode : Variable
Bit rate : 2 390 Kbps
Width : 720 pixels
Height : 576 pixels
Display aspect ratio : 4:3
Frame rate mode : Constant
Frame rate : 25.000 fps
Standard : PAL
Color space : YUV
Chroma subsampling : 4:2:0
Bit depth : 8 bits
Scan type : Interlaced
Scan order : Top Field First
Compression mode : Lossy
Bits/(Pixel*Frame) : 0.231
Time code of first frame : 00:00:00:00
Time code source : Group of pictures header
GOP, Open/Closed : Open
GOP, Open/Closed of first frame : Closed
Stream size : 606 MiB (91%)
Default : Yes
Forced : No
Audio
ID : 2
Format : MPEG Audio
Format version : Version 1
Format profile : Layer 2
Codec ID : A_MPEG/L2
Codec ID/Hint : MP2
Duration : 35mn 26s
Bit rate mode : Constant
Bit rate : 192 Kbps
Channel(s) : 2 channels
Sampling rate : 48.0 KHz
Compression mode : Lossy
Stream size : 48.7 MiB (7%)
Language : Russian
Default : Yes
Forced : No

Скриншоты


Резервные скриншоты


-
[teatrix.ru].t23233.torrent 
Торрент: Зарегистрирован [ 2016-03-21 00:30 ] · DFEFFC6663D0C82466EB2B64BADFFE7D2A837102

Скачать .torrent

Скачать

7 KB

Статус: проверено
Скачан: 0 раз
Размер: 668 MB
terms.php



Быстрый ответ

Имя:

      
Для отправки сообщений необходимо включить JavaScript
Показать сообщения:    

Текущее время: 04-Дек 00:52

Часовой пояс: UTC + 3


Вы можете начинать темы
Вы можете отвечать на сообщения
Вы не можете редактировать свои сообщения
Вы не можете удалять свои сообщения
Вы не можете голосовать в опросах
Вы не можете прикреплять файлы к сообщениям
Вы можете скачивать файлы