Мечислав (Моисей) Вайнберг - Пассажирка (Брегенцский фестиваль; Паунтни, Брайзах, Курентзис) / Mieczyslaw Weinberg - The Passenger (Bregenzer Festspiele; Pountney, Breisach, Currentzis; Breedt, Sacca) [2010, Opera, Blu-ray 1080i, рус. суб.]


 

[Цитировать]

Мечислав Вайнберг - Пассажирка / Mieczyslaw Weinberg - The Passenger
Год выпуска: 2010
Лейбл: Neos, Unitel Classica, ORF
Страна-производитель: Великобритания, Австрия
Жанр: Opera
Продолжительность: 02:40:52
Язык: Русский, польский, английский, немецкий
Субтитры: Русские, английские, немецкие, французские, польские, эсперанто
Режиссер: David Pountney (Дэвид Паунтни), Felix Breisach (Феликс Брайзах)
Дирижер: Teodor Currentzis (Теодор Курентзис)
Исполнители:
Michelle Breedt (Мишель Бридт) - Лиза,
Roberto Sacca (Роберто Сакка) - Вальтер,
Elena Kelessidi (Елена Келессиди) - Марта,
Artur Rucinski (Артур Ручински) - Тадеуш,
Svetlana Doneva (Светлана Донева) - Катя,
Angelica Voje (Анжелика Войе) - Кристина,
Elzbieta Wroblewska (Эльжбета Вроблевска) - Власта,
Agnieszka Rehlis (Агнешка Рехлис) - Ханна,
Talia Or (Талия Ор) - Иветт,
Helen Field (Хелен Филд) - Старуха,
Liuba Sokolova (Люба Соколова) - Бронка,
Richard Angas (Ричард Энгас) - Старый пассажир / стюарт
Хор пражской филармонии, Венский симфонический оркестр
Описание: "Пассажирка", опера в двух актах, соч. 97 (1968).
Свою первую оперу - «Пассажирка» - Вайнберг написал в 1968 году по заказу Большого театра. Её высоко оценил Шостакович – близкий друг и наставник композитора. Он трижды слушал ее в домашнем исполнении автора на рояле, и каждый раз очень хвалил, считая "мастерским, совершенным по стилю и форме произведением".
После прослушивания оперы в Союзе композиторов, ведущие российские музыканты признали оперу большим художественным событием. Тем не менее, ни одному из советских театров, заинтересовавшихся оперой, не удалось ее исполнить, поскольку действовал негласный запрет "сверху".
В основу сюжета оперы легла одноименная повесть польской писательницы Зофии Посмыш. В "Пассажирке" повествуется о случайной встрече на палубе корабля, плывущего в Бразилию бывшей узницы нацистского концлагеря Марты с бывшей надзирательницей. Эта военная тема была мучительно близкой Вайнбергу, вся семья которого погибла в годы войны, а сам он был вынужден покинуть родину.
Вайнберг называл оперу самым своим главным произведением, но при жизни композитора она так и не была исполнена. Лишь в 2006 году она впервые прозвучала на сцене Московского международного Дома музыки.

Оригинальное описание

Is an opera dealing with Auschwitz automatically worthy of acclaim simply through its dealing with a subject that can't help but be powerful and emotive? Or are some subjects are just so taboo that they shouldn't be turned into art, since any attempts to do so will almost certainly diminish them? Written in 1967-8, it's taken over 40 years for Mieczysław Weinberg's opera The Passenger to receive its World Premiere at the Bregenzer Festspiele in 2010, and on the basis of this remarkable production, it seems that opera is the perfect and perhaps the only art-form really capable of dealing with the complex questions that the subject gives rise to.
Dealing with events that took place in Auschwitz from the perspective of looking back on what happened, those questions relate here to the issues of guilt and conscience, specifically over the involvement and culpability of ordinary German people in the atrocities committed during the war in the Nazi concentration camps. The subject is raised as a German official, Walter, is about to set sail with his wife to take up a diplomatic post in Brazil during the 1960s. His wife, Lisa, becomes upset however when she sees a passenger on the ship, a woman who reminds her of a dark episode in her past that she has never told her husband about. The woman reminds her of Marta, a Polish prisoner at Auschwitz, where Lisa was an SS camp overseer.
Recording live at the Bregenzer Festspiele, July 2010. World premiere recording.
Бонус: Documentary "In der Fremde", including an interview with Zofia Posmysz (00:28:46)
Моисей Самуилович Вайнберг
Об опере
Качество видео: Blu-ray
Формат/Контейнер: BDMV
Видео кодек: MPEG4
Аудио кодек: DTS
Видео поток: 1920x1080i, MPEG-4 Video, 29.970 fps, 16:9, 23997 kbps
Аудио поток: DTS-HD MA, 5 ch, 48 kHz, 24-bit, 3690 kbps (DTS Core: 5.0 / 48 kHz / 1509 kbps / 24-bit)

BD-Info

Disc Title: Вайнберг - Пассажирка (Bregenzer Festspiele) (2010) (Blu-ray 1080i, AVC, DTS-HD 5.0)
Disc Size: 41 136 962 756 bytes
Protection: AACS
BD-Java: No
Extras: 50Hz Content
BDInfo: 0.5.8
Notes:
BDINFO HOME:
Cinema Squid
http://www.cinemasquid.com/blu-ray/tools/bdinfo
INCLUDES FORUMS REPORT FOR:
AVS Forum Blu-ray Audio and Video Specifications Thread
http://www.avsforum.com/avs-vb/showthread.php?t=1155731
********************
PLAYLIST: 00003.MPLS
********************
<--- BEGIN FORUMS PASTE --->
Total   Video
Title                                                           Codec   Length  Movie Size      Disc Size       Bitrate Bitrate Main Audio Track                          Secondary Audio Track
-----                                                           ------  ------- --------------  --------------  ------- ------- ------------------                        ---------------------
00003.MPLS                                                      AVC     2:40:52 35 351 255 040  41 136 962 756  29,30   24,00   DTS-HD Master 5.0 3690Kbps (48kHz/24-bit)
DISC INFO:
[br]
Disc Title:     Вайнберг - Пассажирка (Bregenzer Festspiele) (2010) (Blu-ray 1080i, AVC, DTS-HD 5.0)
Disc Size:      41 136 962 756 bytes
Protection:     AACS
BD-Java:        No
Extras:         50Hz Content
BDInfo:         0.5.8
[br]
PLAYLIST REPORT:
[br]
Name:                   00003.MPLS
Length:                 2:40:52.480 (h:m:s.ms)
Size:                   35 351 255 040 bytes
Total Bitrate:          29,30 Mbps
[br]
VIDEO:
[br]
Codec                   Bitrate             Description
-----                   -------             -----------
MPEG-4 AVC Video        23997 kbps          1080i / 25 fps / 16:9 / High Profile 4.1
[br]
AUDIO:
[br]
Codec                           Language        Bitrate         Description
-----                           --------        -------         -----------
DTS-HD Master Audio             English         3690 kbps       5.0 / 48 kHz / 3690 kbps / 24-bit (DTS Core: 5.0 / 48 kHz / 1509 kbps / 24-bit)
[br]
SUBTITLES:
[br]
Codec                           Language        Bitrate         Description
-----                           --------        -------         -----------
Presentation Graphics           Esperanto       14,525 kbps
Presentation Graphics           German          15,468 kbps
Presentation Graphics           English         15,557 kbps
Presentation Graphics           French          15,534 kbps
Presentation Graphics           Polish          14,689 kbps
Presentation Graphics           Russian         11,615 kbps
[br]
FILES:
[br]
Name            Time In         Length          Size            Total Bitrate
----            -------         ------          ----            -------------
00000.M2TS      0:00:00.000     1:19:54.240     17 541 543 936  29 271
00002.M2TS      1:19:54.240     1:20:58.240     17 809 711 104  29 327
[br]
CHAPTERS:
[br]
Number          Time In         Length          Avg Video Rate  Max 1-Sec Rate  Max 1-Sec Time  Max 5-Sec Rate  Max 5-Sec Time  Max 10Sec Rate  Max 10Sec Time  Avg Frame Size  Max Frame Size  Max Frame Time
------          -------         ------          --------------  --------------  --------------  --------------  --------------  --------------  --------------  --------------  --------------  --------------
1               0:00:00.000     0:34:51.399     25 138 kbps     31 677 kbps     00:33:08.720    30 151 kbps     00:04:45.680    30 117 kbps     00:04:40.480    125 686 bytes   373 597 bytes   00:03:41.320
2               0:34:51.399     0:14:20.400     22 610 kbps     32 741 kbps     00:35:17.920    28 317 kbps     00:46:54.160    27 975 kbps     00:46:48.279    113 050 bytes   349 107 bytes   00:37:14.120
3               0:49:11.800     0:30:42.439     23 354 kbps     33 706 kbps     01:11:22.720    32 632 kbps     01:11:02.640    31 464 kbps     01:11:01.280    116 771 bytes   384 688 bytes   01:14:56.160
4               1:19:54.240     0:15:41.199     22 457 kbps     32 322 kbps     01:35:00.320    30 076 kbps     01:34:57.799    29 162 kbps     01:20:40.599    112 285 bytes   376 284 bytes   01:20:30.200
5               1:35:35.439     0:07:04.199     23 218 kbps     31 798 kbps     01:37:52.719    28 920 kbps     01:37:51.439    27 852 kbps     01:41:20.080    116 092 bytes   362 426 bytes   01:37:52.479
6               1:42:39.639     0:28:02.120     23 617 kbps     33 059 kbps     02:05:36.200    31 316 kbps     02:05:32.560    30 478 kbps     01:42:58.439    118 084 bytes   406 284 bytes   02:05:34.600
7               2:10:41.760     0:14:02.079     27 331 kbps     34 665 kbps     02:18:58.439    33 159 kbps     02:18:54.439    32 622 kbps     02:18:31.520    136 657 bytes   409 100 bytes   02:18:40.560
8               2:24:43.840     0:07:19.399     23 260 kbps     29 645 kbps     02:28:03.439    27 921 kbps     02:29:51.959    27 788 kbps     02:25:47.400    116 302 bytes   357 901 bytes   02:28:23.279
9               2:32:03.240     0:08:49.239     23 855 kbps     34 219 kbps     02:40:10.560    31 714 kbps     02:40:08.560    30 094 kbps     02:40:04.000    119 285 bytes   428 761 bytes   02:40:24.200
[br]
STREAM DIAGNOSTICS:
[br]
File            PID             Type            Codec           Language                Seconds                 Bitrate                 Bytes           Packets
----            ---             ----            -----           --------                --------------          --------------          -------------   -----
00000.M2TS      4113 (0x1011)   0x1B            AVC                                     4794,080                23 999                  14 381 910 692  78 232 416
00000.M2TS      4352 (0x1100)   0x86            DTS-HD MA       eng (English)           4794,080                3 654                   2 189 798 908   12 647 396
00000.M2TS      4608 (0x1200)   0x90            PGS             epo (Esperanto)         4794,080                16                      9 419 451       54 026
00000.M2TS      4609 (0x1201)   0x90            PGS             deu (German)            4794,080                17                      10 104 096      57 767
00000.M2TS      4610 (0x1202)   0x90            PGS             eng (English)           4794,080                16                      9 856 807       56 370
00000.M2TS      4611 (0x1203)   0x90            PGS             fra (French)            4794,080                17                      9 923 263       56 800
00000.M2TS      4612 (0x1204)   0x90            PGS             pol (Polish)            4794,080                16                      9 388 234       53 843
00000.M2TS      4613 (0x1205)   0x90            PGS             rus (Russian)           4794,080                12                      7 406 894       42 960
00002.M2TS      4113 (0x1011)   0x1B            AVC                                     4858,080                23 996                  14 571 603 934  79 264 264
00002.M2TS      4352 (0x1100)   0x86            DTS-HD MA       eng (English)           4858,080                3 725                   2 261 810 240   13 049 222
00002.M2TS      4608 (0x1200)   0x90            PGS             epo (Esperanto)         4858,080                13                      8 105 472       46 474
00002.M2TS      4609 (0x1201)   0x90            PGS             deu (German)            4858,080                14                      8 558 390       48 944
00002.M2TS      4610 (0x1202)   0x90            PGS             eng (English)           4858,080                15                      8 913 685       50 861
00002.M2TS      4611 (0x1203)   0x90            PGS             fra (French)            4858,080                15                      8 819 962       50 440
00002.M2TS      4612 (0x1204)   0x90            PGS             pol (Polish)            4858,080                14                      8 335 184       47 723
00002.M2TS      4613 (0x1205)   0x90            PGS             rus (Russian)           4858,080                11                      6 607 163       38 241
<---- END FORUMS PASTE ---->
QUICK SUMMARY:
Disc Title: Вайнберг - Пассажирка (Bregenzer Festspiele) (2010) (Blu-ray 1080i, AVC, DTS-HD 5.0)
Disc Size: 41 136 962 756 bytes
Protection: AACS
BD-Java: No
Playlist: 00003.MPLS
Size: 35 351 255 040 bytes
Length: 2:40:52.480
Total Bitrate: 29,30 Mbps
Video: MPEG-4 AVC Video / 23997 kbps / 1080i / 25 fps / 16:9 / High Profile 4.1
Audio: English / DTS-HD Master Audio / 5.0 / 48 kHz / 3690 kbps / 24-bit (DTS Core: 5.0 / 48 kHz / 1509 kbps / 24-bit)
Subtitle: Esperanto / 14,525 kbps
Subtitle: German / 15,468 kbps
Subtitle: English / 15,557 kbps
Subtitle: French / 15,534 kbps
Subtitle: Polish / 14,689 kbps
Subtitle: Russian / 11,615 kbps
********************
PLAYLIST: 00002.MPLS
********************
<--- BEGIN FORUMS PASTE --->
Total   Video
Title                                                           Codec   Length  Movie Size      Disc Size       Bitrate Bitrate Main Audio Track                          Secondary Audio Track
-----                                                           ------  ------- --------------  --------------  ------- ------- ------------------                        ---------------------
00002.MPLS                                                      AVC     1:20:58 17 809 711 104  41 136 962 756  29,33   23,99   DTS-HD Master 5.0 3724Kbps (48kHz/24-bit)
DISC INFO:
[br]
Disc Title:     Вайнберг - Пассажирка (Bregenzer Festspiele) (2010) (Blu-ray 1080i, AVC, DTS-HD 5.0)
Disc Size:      41 136 962 756 bytes
Protection:     AACS
BD-Java:        No
Extras:         50Hz Content
BDInfo:         0.5.8
[br]
PLAYLIST REPORT:
[br]
Name:                   00002.MPLS
Length:                 1:20:58.240 (h:m:s.ms)
Size:                   17 809 711 104 bytes
Total Bitrate:          29,33 Mbps
[br]
VIDEO:
[br]
Codec                   Bitrate             Description
-----                   -------             -----------
MPEG-4 AVC Video        23995 kbps          1080i / 25 fps / 16:9 / High Profile 4.1
[br]
AUDIO:
[br]
Codec                           Language        Bitrate         Description
-----                           --------        -------         -----------
DTS-HD Master Audio             English         3724 kbps       5.0 / 48 kHz / 3724 kbps / 24-bit (DTS Core: 5.0 / 48 kHz / 1509 kbps / 24-bit)
[br]
SUBTITLES:
[br]
Codec                           Language        Bitrate         Description
-----                           --------        -------         -----------
Presentation Graphics           Esperanto       13,347 kbps
Presentation Graphics           German          14,093 kbps
Presentation Graphics           English         14,678 kbps
Presentation Graphics           French          14,524 kbps
Presentation Graphics           Polish          13,725 kbps
Presentation Graphics           Russian         10,880 kbps
[br]
FILES:
[br]
Name            Time In         Length          Size            Total Bitrate
----            -------         ------          ----            -------------
00002.M2TS      0:00:00.000     1:20:58.240     17 809 711 104  29 327
[br]
CHAPTERS:
[br]
Number          Time In         Length          Avg Video Rate  Max 1-Sec Rate  Max 1-Sec Time  Max 5-Sec Rate  Max 5-Sec Time  Max 10Sec Rate  Max 10Sec Time  Avg Frame Size  Max Frame Size  Max Frame Time
------          -------         ------          --------------  --------------  --------------  --------------  --------------  --------------  --------------  --------------  --------------  --------------
1               0:00:00.000     0:15:41.200     22 457 kbps     32 322 kbps     00:15:06.080    30 076 kbps     00:15:03.560    29 162 kbps     00:00:46.360    112 280 bytes   376 284 bytes   00:00:35.960
2               0:15:41.200     0:07:04.200     23 218 kbps     31 798 kbps     00:17:58.480    28 920 kbps     00:17:57.200    27 852 kbps     00:21:25.840    116 092 bytes   362 426 bytes   00:17:58.240
3               0:22:45.400     0:28:02.120     23 617 kbps     33 059 kbps     00:45:41.960    31 316 kbps     00:45:38.319    30 478 kbps     00:23:04.200    118 084 bytes   406 284 bytes   00:45:40.359
4               0:50:47.520     0:14:02.079     27 331 kbps     34 665 kbps     00:59:04.200    33 159 kbps     00:59:00.200    32 622 kbps     00:58:37.280    136 657 bytes   409 100 bytes   00:58:46.320
5               1:04:49.600     0:07:19.399     23 260 kbps     29 645 kbps     01:08:09.200    27 921 kbps     01:09:57.720    27 788 kbps     01:05:53.160    116 302 bytes   357 901 bytes   01:08:29.040
6               1:12:09.000     0:08:49.239     23 855 kbps     34 219 kbps     01:20:16.320    31 714 kbps     01:20:14.320    30 094 kbps     01:20:09.760    119 285 bytes   428 761 bytes   01:20:29.960
[br]
STREAM DIAGNOSTICS:
[br]
File            PID             Type            Codec           Language                Seconds                 Bitrate                 Bytes           Packets
----            ---             ----            -----           --------                --------------          --------------          -------------   -----
00002.M2TS      4113 (0x1011)   0x1B            AVC                                     4858,080                23 996                  14 571 603 934  79 264 264
00002.M2TS      4352 (0x1100)   0x86            DTS-HD MA       eng (English)           4858,080                3 725                   2 261 810 240   13 049 222
00002.M2TS      4608 (0x1200)   0x90            PGS             epo (Esperanto)         4858,080                13                      8 105 472       46 474
00002.M2TS      4609 (0x1201)   0x90            PGS             deu (German)            4858,080                14                      8 558 390       48 944
00002.M2TS      4610 (0x1202)   0x90            PGS             eng (English)           4858,080                15                      8 913 685       50 861
00002.M2TS      4611 (0x1203)   0x90            PGS             fra (French)            4858,080                15                      8 819 962       50 440
00002.M2TS      4612 (0x1204)   0x90            PGS             pol (Polish)            4858,080                14                      8 335 184       47 723
00002.M2TS      4613 (0x1205)   0x90            PGS             rus (Russian)           4858,080                11                      6 607 163       38 241
<---- END FORUMS PASTE ---->
QUICK SUMMARY:
Disc Title: Вайнберг - Пассажирка (Bregenzer Festspiele) (2010) (Blu-ray 1080i, AVC, DTS-HD 5.0)
Disc Size: 41 136 962 756 bytes
Protection: AACS
BD-Java: No
Playlist: 00002.MPLS
Size: 17 809 711 104 bytes
Length: 1:20:58.240
Total Bitrate: 29,33 Mbps
Video: MPEG-4 AVC Video / 23995 kbps / 1080i / 25 fps / 16:9 / High Profile 4.1
Audio: English / DTS-HD Master Audio / 5.0 / 48 kHz / 3724 kbps / 24-bit (DTS Core: 5.0 / 48 kHz / 1509 kbps / 24-bit)
Subtitle: Esperanto / 13,347 kbps
Subtitle: German / 14,093 kbps
Subtitle: English / 14,678 kbps
Subtitle: French / 14,524 kbps
Subtitle: Polish / 13,725 kbps
Subtitle: Russian / 10,880 kbps
********************
PLAYLIST: 00000.MPLS
********************
<--- BEGIN FORUMS PASTE --->
Total   Video
Title                                                           Codec   Length  Movie Size      Disc Size       Bitrate Bitrate Main Audio Track                          Secondary Audio Track
-----                                                           ------  ------- --------------  --------------  ------- ------- ------------------                        ---------------------
00000.MPLS                                                      AVC     1:19:54 17 541 543 936  41 136 962 756  29,27   24,00   DTS-HD Master 5.0 3654Kbps (48kHz/24-bit)
DISC INFO:
[br]
Disc Title:     Вайнберг - Пассажирка (Bregenzer Festspiele) (2010) (Blu-ray 1080i, AVC, DTS-HD 5.0)
Disc Size:      41 136 962 756 bytes
Protection:     AACS
BD-Java:        No
Extras:         50Hz Content
BDInfo:         0.5.8
[br]
PLAYLIST REPORT:
[br]
Name:                   00000.MPLS
Length:                 1:19:54.240 (h:m:s.ms)
Size:                   17 541 543 936 bytes
Total Bitrate:          29,27 Mbps
[br]
VIDEO:
[br]
Codec                   Bitrate             Description
-----                   -------             -----------
MPEG-4 AVC Video        23999 kbps          1080i / 25 fps / 16:9 / High Profile 4.1
[br]
AUDIO:
[br]
Codec                           Language        Bitrate         Description
-----                           --------        -------         -----------
DTS-HD Master Audio             English         3654 kbps       5.0 / 48 kHz / 3654 kbps / 24-bit (DTS Core: 5.0 / 48 kHz / 1509 kbps / 24-bit)
[br]
SUBTITLES:
[br]
Codec                           Language        Bitrate         Description
-----                           --------        -------         -----------
Presentation Graphics           Esperanto       15,718 kbps
Presentation Graphics           German          16,860 kbps
Presentation Graphics           English         16,448 kbps
Presentation Graphics           French          16,559 kbps
Presentation Graphics           Polish          15,666 kbps
Presentation Graphics           Russian         12,360 kbps
[br]
FILES:
[br]
Name            Time In         Length          Size            Total Bitrate
----            -------         ------          ----            -------------
00000.M2TS      0:00:00.000     1:19:54.240     17 541 543 936  29 271
[br]
CHAPTERS:
[br]
Number          Time In         Length          Avg Video Rate  Max 1-Sec Rate  Max 1-Sec Time  Max 5-Sec Rate  Max 5-Sec Time  Max 10Sec Rate  Max 10Sec Time  Avg Frame Size  Max Frame Size  Max Frame Time
------          -------         ------          --------------  --------------  --------------  --------------  --------------  --------------  --------------  --------------  --------------  --------------
1               0:00:00.000     0:34:51.399     25 138 kbps     31 677 kbps     00:33:08.720    30 151 kbps     00:04:45.680    30 117 kbps     00:04:40.480    125 686 bytes   373 597 bytes   00:03:41.320
2               0:34:51.399     0:14:20.400     22 610 kbps     32 741 kbps     00:35:17.920    28 317 kbps     00:46:54.160    27 975 kbps     00:46:48.279    113 050 bytes   349 107 bytes   00:37:14.120
3               0:49:11.800     0:30:42.439     23 354 kbps     33 706 kbps     01:11:22.720    32 632 kbps     01:11:02.640    31 464 kbps     01:11:01.280    116 774 bytes   384 688 bytes   01:14:56.160
[br]
STREAM DIAGNOSTICS:
[br]
File            PID             Type            Codec           Language                Seconds                 Bitrate                 Bytes           Packets
----            ---             ----            -----           --------                --------------          --------------          -------------   -----
00000.M2TS      4113 (0x1011)   0x1B            AVC                                     4794,080                23 999                  14 381 910 692  78 232 416
00000.M2TS      4352 (0x1100)   0x86            DTS-HD MA       eng (English)           4794,080                3 654                   2 189 798 908   12 647 396
00000.M2TS      4608 (0x1200)   0x90            PGS             epo (Esperanto)         4794,080                16                      9 419 451       54 026
00000.M2TS      4609 (0x1201)   0x90            PGS             deu (German)            4794,080                17                      10 104 096      57 767
00000.M2TS      4610 (0x1202)   0x90            PGS             eng (English)           4794,080                16                      9 856 807       56 370
00000.M2TS      4611 (0x1203)   0x90            PGS             fra (French)            4794,080                17                      9 923 263       56 800
00000.M2TS      4612 (0x1204)   0x90            PGS             pol (Polish)            4794,080                16                      9 388 234       53 843
00000.M2TS      4613 (0x1205)   0x90            PGS             rus (Russian)           4794,080                12                      7 406 894       42 960
<---- END FORUMS PASTE ---->
QUICK SUMMARY:
Disc Title: Вайнберг - Пассажирка (Bregenzer Festspiele) (2010) (Blu-ray 1080i, AVC, DTS-HD 5.0)
Disc Size: 41 136 962 756 bytes
Protection: AACS
BD-Java: No
Playlist: 00000.MPLS
Size: 17 541 543 936 bytes
Length: 1:19:54.240
Total Bitrate: 29,27 Mbps
Video: MPEG-4 AVC Video / 23999 kbps / 1080i / 25 fps / 16:9 / High Profile 4.1
Audio: English / DTS-HD Master Audio / 5.0 / 48 kHz / 3654 kbps / 24-bit (DTS Core: 5.0 / 48 kHz / 1509 kbps / 24-bit)
Subtitle: Esperanto / 15,718 kbps
Subtitle: German / 16,860 kbps
Subtitle: English / 16,448 kbps
Subtitle: French / 16,559 kbps
Subtitle: Polish / 15,666 kbps
Subtitle: Russian / 12,360 kbps
********************
PLAYLIST: 00001.MPLS
********************
<--- BEGIN FORUMS PASTE --->
Total   Video
Title                                                           Codec   Length  Movie Size      Disc Size       Bitrate Bitrate Main Audio Track                          Secondary Audio Track
-----                                                           ------  ------- --------------  --------------  ------- ------- ------------------                        ---------------------
00001.MPLS                                                      AVC     0:28:46 5 702 541 312   41 136 962 756  26,43   23,99   DTS-HD Master 2.0 1068Kbps (48kHz/16-bit)
DISC INFO:
[br]
Disc Title:     Вайнберг - Пассажирка (Bregenzer Festspiele) (2010) (Blu-ray 1080i, AVC, DTS-HD 5.0)
Disc Size:      41 136 962 756 bytes
Protection:     AACS
BD-Java:        No
Extras:         50Hz Content
BDInfo:         0.5.8
[br]
PLAYLIST REPORT:
[br]
Name:                   00001.MPLS
Length:                 0:28:46.000 (h:m:s.ms)
Size:                   5 702 541 312 bytes
Total Bitrate:          26,43 Mbps
[br]
VIDEO:
[br]
Codec                   Bitrate             Description
-----                   -------             -----------
MPEG-4 AVC Video        23995 kbps          1080i / 25 fps / 16:9 / High Profile 4.1
[br]
AUDIO:
[br]
Codec                           Language        Bitrate         Description
-----                           --------        -------         -----------
DTS-HD Master Audio             German          1068 kbps       2.0 / 48 kHz / 1068 kbps / 16-bit (DTS Core: 2.0 / 48 kHz / 768 kbps / 16-bit)
[br]
SUBTITLES:
[br]
Codec                           Language        Bitrate         Description
-----                           --------        -------         -----------
Presentation Graphics           English         52,970 kbps
[br]
FILES:
[br]
Name            Time In         Length          Size            Total Bitrate
----            -------         ------          ----            -------------
00001.M2TS      0:00:00.000     0:28:46.000     5 702 541 312   26 431
[br]
CHAPTERS:
[br]
Number          Time In         Length          Avg Video Rate  Max 1-Sec Rate  Max 1-Sec Time  Max 5-Sec Rate  Max 5-Sec Time  Max 10Sec Rate  Max 10Sec Time  Avg Frame Size  Max Frame Size  Max Frame Time
------          -------         ------          --------------  --------------  --------------  --------------  --------------  --------------  --------------  --------------  --------------  --------------
1               0:00:00.000     0:11:33.800     23 850 kbps     35 150 kbps     00:02:12.640    33 173 kbps     00:02:28.680    32 540 kbps     00:02:27.720    119 242 bytes   640 954 bytes   00:03:24.440
2               0:11:33.800     0:08:25.200     24 534 kbps     35 757 kbps     00:18:18.359    33 201 kbps     00:12:52.280    32 497 kbps     00:12:53.240    122 670 bytes   590 379 bytes   00:18:04.200
3               0:19:59.000     0:08:47.000     23 668 kbps     34 405 kbps     00:25:48.760    32 539 kbps     00:25:42.520    32 319 kbps     00:25:40.520    118 349 bytes   436 517 bytes   00:20:23.400
[br]
STREAM DIAGNOSTICS:
[br]
File            PID             Type            Codec           Language                Seconds                 Bitrate                 Bytes           Packets
----            ---             ----            -----           --------                --------------          --------------          -------------   -----
00001.M2TS      4113 (0x1011)   0x1B            AVC                                     1725,840                23 997                  5 176 830 398   28 160 109
00001.M2TS      4352 (0x1100)   0x86            DTS-HD MA       deu (German)            1725,840                1 069                   230 517 584     1 418 704
00001.M2TS      4608 (0x1200)   0x90            PGS             eng (English)           1725,840                53                      11 428 248      64 065
<---- END FORUMS PASTE ---->
QUICK SUMMARY:
Disc Title: Вайнберг - Пассажирка (Bregenzer Festspiele) (2010) (Blu-ray 1080i, AVC, DTS-HD 5.0)
Disc Size: 41 136 962 756 bytes
Protection: AACS
BD-Java: No
Playlist: 00001.MPLS
Size: 5 702 541 312 bytes
Length: 0:28:46.000
Total Bitrate: 26,43 Mbps
Video: MPEG-4 AVC Video / 23995 kbps / 1080i / 25 fps / 16:9 / High Profile 4.1
Audio: German / DTS-HD Master Audio / 2.0 / 48 kHz / 1068 kbps / 16-bit (DTS Core: 2.0 / 48 kHz / 768 kbps / 16-bit)
Subtitle: English / 52,970 kbps
Семпл

Скриншоты


Скриншоты доп. материалов




Показать сообщения:    

Текущее время: 19-Янв 16:05

Часовой пояс: UTC + 3


Вы не можете начинать темы
Вы не можете отвечать на сообщения
Вы не можете редактировать свои сообщения
Вы не можете удалять свои сообщения
Вы не можете голосовать в опросах
Вы не можете прикреплять файлы к сообщениям
Вы не можете скачивать файлы