Это не Калифорния / Тут вам не Калифорния / This Ain't California (Мартен Перзиль / Marten Persiel) [2012, Германия, документальный, DVB] DVO (24 ДОК)


Статистика раздачи [Обновить пиров]
Размер:  1.91 GB   |    Зарегистрирован:  8 месяцев 20 дней   |    Скачан:  0 раз

Полного источника не было: Никогда

 
   
 
 
 

[Цитировать]

Это не Калифорния
This Ain't California- Дата/Год выпуска: 2012
Страна: Германия
Жанр: документальный
Продолжительность: 01:30:26
Перевод: Профессиональный (двухголосый закадровый) 24 ДОК
Русские субтитры: нет
Режиссер: Мартен Перзиль / Marten Persiel
В ролях: Дэвид Нэйтан, Аннеке Швабе, Жанета Фухсова, Кай Хилленбранд, Эрих Хонеккер, Гельмут Коль, Герхард Шрёдер
Телеканал: 24 ДОКОписание: Трое друзей из маленького городка в ГДР, которые в конце 70-х осваивают катание на скейтборде, конструируя не производившиеся в социалистической стране скейты из подручных материалов. Потом все трое переезжают в столицу, находят таких же безумных и отчаянных сорвиголов, как они сами, и начинают творить историю. Один из них, Денис Паник — бывший спортсмен и писаный красавец — становится лидером движения. Он делает головокружительные трюки, стирает доски в порошок и заставляет нервничать даже агентов Штази.
Доп. информация: Eutelsat 36B (W7) DVB-S
Награды: премия DIALOGUE en Perspective за лучшее визуальное и стилистическое решение Berlin International Film Festival 2012; номинация на премию "Золотоя лягушка" за лучшую операторскую работу в документальном кино Camerimage 2012; Специальный приз жюри за лучшую режиссуру Nashville Film Festival 2012; др. награды.

качество: DVB
формат: MKV
Видео: MPEG Video 2, 720x576 (4:3), 25 fps, ~2777 kbps avg, 0.268 bit/pixel
Аудио: MPEG Audio 2, 2 ch, 48 kHz, 192 kbps

MediaInfo

General
Unique ID : 184296883405993340092847998267393751266 (0x8AA649E45E777E10ADA1216D8796B8E2)
Complete name : [apreder]This_Ain't_California(2012)DVB.mkv
Format : Matroska
Format version : Version 2
File size : 1.91 GiB
Duration : 1h 30mn
Overall bit rate mode : Variable
Overall bit rate : 3 029 Kbps
Movie name : This Ain't California
Released date : 2012-08-16
Encoded date : UTC 2016-03-07 13:18:21
Writing application : mkvmerge v8.9.0 ('Father Daughter') 64bit
Writing library : libebml v1.3.3 + libmatroska v1.4.4
Cover : Yes
Attachments : cover.png / cover_small.png
DIRECTOR : Marten Persiel
GENRE : Documentary
IMDB : tt2113090
KEYWORDS : rutracker.org
LAW_RATING : 16+
Video
ID : 1
Format : MPEG Video
Format version : Version 2
Format profile : Main@Main
Format settings, BVOP : Yes
Format settings, Matrix : Custom
Format settings, GOP : M=3, N=36
Format settings, picture structure : Frame
Codec ID : V_MPEG2
Codec ID/Info : MPEG 1 or 2 Video
Duration : 1h 30mn
Bit rate mode : Variable
Bit rate : 2 777 Kbps
Width : 720 pixels
Height : 576 pixels
Display aspect ratio : 4:3
Frame rate mode : Constant
Frame rate : 25.000 fps
Standard : PAL
Color space : YUV
Chroma subsampling : 4:2:0
Bit depth : 8 bits
Scan type : Interlaced
Scan order : Top Field First
Compression mode : Lossy
Bits/(Pixel*Frame) : 0.268
Time code of first frame : 00:00:00:00
Time code source : Group of pictures header
GOP, Open/Closed : Open
GOP, Open/Closed of first frame : Closed
Stream size : 1.75 GiB (92%)
Default : Yes
Forced : No
Audio
ID : 2
Format : MPEG Audio
Format version : Version 1
Format profile : Layer 2
Codec ID : A_MPEG/L2
Codec ID/Hint : MP2
Duration : 1h 30mn
Bit rate mode : Constant
Bit rate : 192 Kbps
Channel(s) : 2 channels
Sampling rate : 48.0 KHz
Compression mode : Lossy
Stream size : 124 MiB (6%)
Language : Russian
Default : Yes
Forced : No

Скриншот с названием фильма

Скриншоты


Резервные скриншоты


-
[teatrix.ru].t23236.torrent 
Торрент: Зарегистрирован [ 2016-03-21 00:30 ] · FF41FB8A37E32938AD9805E5BF4F497F397ACC

Скачать .torrent

Скачать

20 KB

Статус: проверено
Скачан: 0 раз
Размер: 1.91 GB
terms.php



Быстрый ответ

Имя:

      
Для отправки сообщений необходимо включить JavaScript
Показать сообщения:    

Текущее время: 10-Дек 04:12

Часовой пояс: UTC + 3


Вы можете начинать темы
Вы можете отвечать на сообщения
Вы не можете редактировать свои сообщения
Вы не можете удалять свои сообщения
Вы не можете голосовать в опросах
Вы не можете прикреплять файлы к сообщениям
Вы можете скачивать файлы