(Classical guitar) Spanish Guitar (Ana Vidovic, Jose Antonio Escobar, Norbert Kraft, Pablo Sainz Villegas, Fabio Zanon, Denis Azabagic - Tarrega, Albeniz, Turina, Villa-Lobos, Torroba, Granados, de Falla)- 2005, FLAC (tracks+.cue) lossless


 

[Цитировать]

Spanish Guitar
Жанр: Classical guitar
Страна-производитель диска: Canada
Год издания диска: 2005
Издатель (лейбл): Naxos Rights International Ltd.
Номер по каталогу: 8.503175
Аудиокодек: FLAC
Тип рипа: tracks+.cue
Битрейт аудио: lossless
Продолжительность: 1:05:38.
Источник: собственный рип
Наличие сканов в содержимом раздачи: да
Треклист:
01. Capricho Arabe (Francisco Tarrega) [0:04:11.14]
02. Mallorca (Isaac Albeniz) [0:06:43.29]
03. Fandanduillo (Joaquin Turina) [0:01:43.09]
04. Danza Mora (Francisco Tarrega) [0:02:51.44]
05. Chorus No.1 (Heitor Villa-Lobos) [0:04:49.14]
06. Allegro (Joaquin Turina) [0:05:23.74]
07. Torre Bermaja (Isaac Albeniz) [0:04:29.02]
08. Estudio Brilliante (Francisco Tarrega) [0:02:39.39]
09. Andanta (Frederico Morena Torroba) [0:03:44.03]
10. Maria-Gavota (Francisco Tarrega) [0:01:21.15]
11. Danza Espagnola No.5 (Enrique Granados) [0:04:31.68]
12. Dance of the Miller (Manuel de Falla) [0:02:46.60]
13. Asturias (Isaac Albeniz) [0:06:22.26]
14. Soleares (Joaquin Turina) [0:02:12.12]
15. Etude No.2 (Heitor Villa-Lobos) [0:01:25.48]
16. Etude No.4 (Heitor Villa-Lobos) [0:03:16.60]
17. Prelude No.1 (Heitor Villa-Lobos) [0:04:25.45]
18. Prelude No.2 (Heitor Villa-Lobos) [0:02:41.11]
Исполнители:
Ana Vidovic - 1, 4;
Jose Antonio Escobar - 2, 7;
Pablo Sainz Villegas - 3, 6, 10, 14;
Norbert Kraft - 5, 11, 12, 13, 15, 16, 17, 18;
Fabio Zanon - 8;
Denis Azabagic - 9.

Лог создания рипа

Exact Audio Copy V1.0 beta 3 from 29. August 2011
Отчёт EAC об извлечении, выполненном 6. марта 2016, 16:02
VA / Spanish Guitar
Дисковод: ASUS DRW-1814BLT Adapter: 4 ID: 0
Режим чтения : Достоверность
Использование точного потока : Да
Отключение кэша аудио : Да
Использование указателей C2 : Нет
Коррекция смещения при чтении : 6
Способность читать области Lead-in и Lead-out : Нет
Заполнение пропущенных сэмплов тишиной : Да
Удаление блоков с тишиной в начале и конце : Нет
При вычислениях CRC использовались нулевые сэмплы : Да
Интерфейс : Встроенный Win32-интерфейс для Win NT/2000
Обработка зазоров : Добавлено к предыдущему треку
Выходной формат : Пользовательский кодировщик
Выбранный битрейт : 128 kBit/s
Качество : Высокий
Добавление ID3-тега : Нет
Утилита сжатия : C:\Program Files\Exact Audio Copy\Flac\flac.exe
Дополнительные параметры : -V -8 -T "Genre=%genre%" -T "Artist=%artist%" -T "Title=%title%" -T "Album=%albumtitle%" -T "Date=%year%" -T "Tracknumber=%tracknr%" -T "Comment=EAC1.0b2 FLAC -8" %source%
TOC извлечённого CD
Трек | Старт | Длительность | Начальный сектор | Конечный сектор
---------------------------------------------------------------------
1 | 0:00.00 | 4:11.14 | 0 | 18838
2 | 4:11.14 | 6:43.29 | 18839 | 49092
3 | 10:54.43 | 1:43.09 | 49093 | 56826
4 | 12:37.52 | 2:51.44 | 56827 | 69695
5 | 15:29.21 | 4:49.14 | 69696 | 91384
6 | 20:18.35 | 5:23.74 | 91385 | 115683
7 | 25:42.34 | 4:29.02 | 115684 | 135860
8 | 30:11.36 | 2:39.39 | 135861 | 147824
9 | 32:51.00 | 3:44.03 | 147825 | 164627
10 | 36:35.03 | 1:21.15 | 164628 | 170717
11 | 37:56.18 | 4:31.68 | 170718 | 191110
12 | 42:28.11 | 2:46.60 | 191111 | 203620
13 | 45:14.71 | 6:22.26 | 203621 | 232296
14 | 51:37.22 | 2:12.12 | 232297 | 242208
15 | 53:49.34 | 1:25.48 | 242209 | 248631
16 | 55:15.07 | 3:16.60 | 248632 | 263391
17 | 58:31.67 | 4:25.45 | 263392 | 283311
18 | 62:57.37 | 2:41.11 | 283312 | 295397
Трек 1
Имя файла R:\Раздача 59\VA - Spanish Guitar - 2005\01 Capricho Arabe Francisco Tarrega.wav
Длина предзазора 0:00:02.00
Пиковый уровень 94.9 %
Скорость извлечения 3.4 X
Качество трека 100.0 %
CRC теста 09280C08
CRC копии 09280C08
Трек не обнаружен в базе AccurateRip
Копирование... OK
Трек 2
Имя файла R:\Раздача 59\VA - Spanish Guitar - 2005\02 Mallorca Isaac Albeniz.wav
Длина предзазора 0:00:03.00
Пиковый уровень 94.9 %
Скорость извлечения 2.9 X
Качество трека 99.9 %
CRC теста 1C6E5504
CRC копии 1C6E5504
Трек не обнаружен в базе AccurateRip
Копирование... OK
Трек 3
Имя файла R:\Раздача 59\VA - Spanish Guitar - 2005\03 Fandanduillo Joaquin Turina.wav
Длина предзазора 0:00:03.00
Пиковый уровень 94.9 %
Скорость извлечения 3.5 X
Качество трека 100.0 %
CRC теста 3A86A68A
CRC копии 3A86A68A
Трек не обнаружен в базе AccurateRip
Копирование... OK
Трек 4
Имя файла R:\Раздача 59\VA - Spanish Guitar - 2005\04 Danza Mora Francisco Tarrega.wav
Длина предзазора 0:00:03.00
Пиковый уровень 66.4 %
Скорость извлечения 4.1 X
Качество трека 100.0 %
CRC теста DAE3CCD0
CRC копии DAE3CCD0
Трек не обнаружен в базе AccurateRip
Копирование... OK
Трек 5
Имя файла R:\Раздача 59\VA - Spanish Guitar - 2005\05 Chorus No.1 Heitor Villa-Lobos.wav
Длина предзазора 0:00:03.00
Пиковый уровень 94.9 %
Скорость извлечения 3.2 X
Качество трека 99.9 %
CRC теста 85D701C0
CRC копии 85D701C0
Трек не обнаружен в базе AccurateRip
Копирование... OK
Трек 6
Имя файла R:\Раздача 59\VA - Spanish Guitar - 2005\06 Allegro Joaquín Turina.wav
Длина предзазора 0:00:03.00
Пиковый уровень 94.9 %
Скорость извлечения 5.1 X
Качество трека 100.0 %
CRC теста 8EDB51C0
CRC копии 8EDB51C0
Трек не обнаружен в базе AccurateRip
Копирование... OK
Трек 7
Имя файла R:\Раздача 59\VA - Spanish Guitar - 2005\07 Torre Bermaja Isaac Albeniz.wav
Длина предзазора 0:00:03.00
Пиковый уровень 55.6 %
Скорость извлечения 5.3 X
Качество трека 100.0 %
CRC теста C27BC1F4
CRC копии C27BC1F4
Трек не обнаружен в базе AccurateRip
Копирование... OK
Трек 8
Имя файла R:\Раздача 59\VA - Spanish Guitar - 2005\08 Estudio Brilliante Francisco Tarrega.wav
Длина предзазора 0:00:03.00
Пиковый уровень 94.9 %
Скорость извлечения 5.1 X
Качество трека 100.0 %
CRC теста D7475C9F
CRC копии D7475C9F
Трек не обнаружен в базе AccurateRip
Копирование... OK
Трек 9
Имя файла R:\Раздача 59\VA - Spanish Guitar - 2005\09 Andanta Frederico Morena Torroba.wav
Длина предзазора 0:00:03.00
Пиковый уровень 67.5 %
Скорость извлечения 5.6 X
Качество трека 100.0 %
CRC теста D36BCA7E
CRC копии D36BCA7E
Трек не обнаружен в базе AccurateRip
Копирование... OK
Трек 10
Имя файла R:\Раздача 59\VA - Spanish Guitar - 2005\10 Maria-Gavota Francisco Tarrega.wav
Длина предзазора 0:00:03.00
Пиковый уровень 65.5 %
Скорость извлечения 4.5 X
Качество трека 100.0 %
CRC теста 749D7128
CRC копии 749D7128
Трек не обнаружен в базе AccurateRip
Копирование... OK
Трек 11
Имя файла R:\Раздача 59\VA - Spanish Guitar - 2005\11 Danza Espagnola No.5 Enrique Granados.wav
Длина предзазора 0:00:03.00
Пиковый уровень 94.9 %
Скорость извлечения 4.1 X
Качество трека 99.9 %
CRC теста 73D51C3C
CRC копии 73D51C3C
Трек не обнаружен в базе AccurateRip
Копирование... OK
Трек 12
Имя файла R:\Раздача 59\VA - Spanish Guitar - 2005\12 Dance of the Miller Manuel de Falla.wav
Длина предзазора 0:00:03.00
Пиковый уровень 68.2 %
Скорость извлечения 5.7 X
Качество трека 100.0 %
CRC теста E2B46A77
CRC копии E2B46A77
Трек не обнаружен в базе AccurateRip
Копирование... OK
Трек 13
Имя файла R:\Раздача 59\VA - Spanish Guitar - 2005\13 Asturias Isaac Albeniz.wav
Длина предзазора 0:00:03.00
Пиковый уровень 94.9 %
Скорость извлечения 6.6 X
Качество трека 100.0 %
CRC теста 8D8C94C2
CRC копии 8D8C94C2
Трек не обнаружен в базе AccurateRip
Копирование... OK
Трек 14
Имя файла R:\Раздача 59\VA - Spanish Guitar - 2005\14 Soleares Joaquin Turina.wav
Длина предзазора 0:00:03.00
Пиковый уровень 94.9 %
Скорость извлечения 2.0 X
Качество трека 99.8 %
CRC теста E2E83013
CRC копии E2E83013
Трек не обнаружен в базе AccurateRip
Копирование... OK
Трек 15
Имя файла R:\Раздача 59\VA - Spanish Guitar - 2005\15 Etude No.2 Heitor Villa-Lobos.wav
Длина предзазора 0:00:03.00
Пиковый уровень 66.6 %
Скорость извлечения 3.0 X
Качество трека 99.8 %
CRC теста F517F6F1
CRC копии F517F6F1
Трек не обнаружен в базе AccurateRip
Копирование... OK
Трек 16
Имя файла R:\Раздача 59\VA - Spanish Guitar - 2005\16 Etude No.4 Heitor Villa-Lobos.wav
Длина предзазора 0:00:03.00
Пиковый уровень 94.9 %
Скорость извлечения 6.4 X
Качество трека 100.0 %
CRC теста 41A2DD17
CRC копии 41A2DD17
Трек не обнаружен в базе AccurateRip
Копирование... OK
Трек 17
Имя файла R:\Раздача 59\VA - Spanish Guitar - 2005\17 Prelude No.1 Heitor Villa-Lobos.wav
Длина предзазора 0:00:03.00
Пиковый уровень 94.9 %
Скорость извлечения 4.7 X
Качество трека 99.9 %
CRC теста 46B084C6
CRC копии 46B084C6
Трек не обнаружен в базе AccurateRip
Копирование... OK
Трек 18
Имя файла R:\Раздача 59\VA - Spanish Guitar - 2005\18 Prelude No.2 Heitor Villa-Lobos.wav
Длина предзазора 0:00:03.00
Пиковый уровень 94.9 %
Скорость извлечения 6.5 X
Качество трека 100.0 %
CRC теста 3D844432
CRC копии 3D844432
Трек не обнаружен в базе AccurateRip
Копирование... OK
Ни одного трека нет в базе AccurateRip
Ошибок не произошло
Конец отчёта
==== Контрольная сумма отчёта 61A74885BD577DE294C3C27131BD4FE4EAF186D8080C9121C9854B6FCB593AA0 ====

Содержание индексной карты (.CUE)

REM GENRE Classical
REM DATE 2005
REM DISCID 080F6212
REM COMMENT "ExactAudioCopy v1.0b3"
PERFORMER "VA"
TITLE "Spanish Guitar"
FILE "01 Capricho Arabe Francisco Tarrega.wav" WAVE
TRACK 01 AUDIO
TITLE "Capricho Arabe"
PERFORMER "Ana Vidovic"
FLAGS DCP
INDEX 01 00:00:00
TRACK 02 AUDIO
TITLE "Mallorca"
PERFORMER "Jose Antonio Escobar"
FLAGS DCP
INDEX 00 04:08:14
FILE "02 Mallorca Isaac Albeniz.wav" WAVE
INDEX 01 00:00:00
TRACK 03 AUDIO
TITLE "Fandanduillo"
PERFORMER "Pablo Sainz Villegas"
FLAGS DCP
INDEX 00 06:40:29
FILE "03 Fandanduillo Joaquin Turina.wav" WAVE
INDEX 01 00:00:00
TRACK 04 AUDIO
TITLE "Danza Mora"
PERFORMER "Ana Vidovic"
FLAGS DCP
INDEX 00 01:40:09
FILE "04 Danza Mora Francisco Tarrega.wav" WAVE
INDEX 01 00:00:00
TRACK 05 AUDIO
TITLE "Chorus No.1"
PERFORMER "Norbert Kraft"
FLAGS DCP
INDEX 00 02:48:44
FILE "05 Chorus No.1 Heitor Villa-Lobos.wav" WAVE
INDEX 01 00:00:00
TRACK 06 AUDIO
TITLE "Allegro"
PERFORMER "Pablo Sainz Villegas"
FLAGS DCP
INDEX 00 04:46:14
FILE "06 Allegro Joaquin Turina.wav" WAVE
INDEX 01 00:00:00
TRACK 07 AUDIO
TITLE "Torre Bermaja"
PERFORMER "Jose Antonio Escobar"
FLAGS DCP
INDEX 00 05:20:74
FILE "07 Torre Bermaja Isaac Albeniz.wav" WAVE
INDEX 01 00:00:00
TRACK 08 AUDIO
TITLE "Estudio Brilliante"
PERFORMER "Fabio Zanon"
FLAGS DCP
INDEX 00 04:26:02
FILE "08 Estudio Brilliante Francisco Tarrega.wav" WAVE
INDEX 01 00:00:00
TRACK 09 AUDIO
TITLE "Andanta"
PERFORMER "Denis Azabagic"
FLAGS DCP
INDEX 00 02:36:39
FILE "09 Andanta Frederico Morena Torroba.wav" WAVE
INDEX 01 00:00:00
TRACK 10 AUDIO
TITLE "Maria-Gavota"
PERFORMER "Pablo Sainz Villegas"
FLAGS DCP
INDEX 00 03:41:03
FILE "10 Maria-Gavota Francisco Tarrega.wav" WAVE
INDEX 01 00:00:00
TRACK 11 AUDIO
TITLE "Danza Espagnola No.5"
PERFORMER "Norbert Kraft"
FLAGS DCP
INDEX 00 01:18:15
FILE "11 Danza Espagnola No.5 Enrique Granados.wav" WAVE
INDEX 01 00:00:00
TRACK 12 AUDIO
TITLE "Dance of the Miller"
PERFORMER "Norbert Kraft"
FLAGS DCP
INDEX 00 04:28:68
FILE "12 Dance of the Miller Manuel de Falla.wav" WAVE
INDEX 01 00:00:00
TRACK 13 AUDIO
TITLE "Asturias"
PERFORMER "Norbert Kraft"
FLAGS DCP
INDEX 00 02:43:60
FILE "13 Asturias Isaac Albeniz.wav" WAVE
INDEX 01 00:00:00
TRACK 14 AUDIO
TITLE "Soleares"
PERFORMER "Pablo Sainz Villegas"
FLAGS DCP
INDEX 00 06:19:26
FILE "14 Soleares Joaquin Turina.wav" WAVE
INDEX 01 00:00:00
TRACK 15 AUDIO
TITLE "Etude No.2"
PERFORMER "Norbert Kraft"
FLAGS DCP
INDEX 00 02:09:12
FILE "15 Etude No.2 Heitor Villa-Lobos.wav" WAVE
INDEX 01 00:00:00
TRACK 16 AUDIO
TITLE "Etude No.4"
PERFORMER "Norbert Kraft"
FLAGS DCP
INDEX 00 01:22:48
FILE "16 Etude No.4 Heitor Villa-Lobos.wav" WAVE
INDEX 01 00:00:00
TRACK 17 AUDIO
TITLE "Prelude No.1"
PERFORMER "Norbert Kraft"
FLAGS DCP
INDEX 00 03:13:60
FILE "17 Prelude No.1 Heitor Villa-Lobos.wav" WAVE
INDEX 01 00:00:00
TRACK 18 AUDIO
TITLE "Prelude No.2"
PERFORMER "Norbert Kraft"
FLAGS DCP
INDEX 00 04:22:45
FILE "18 Prelude No.2 Heitor Villa-Lobos.wav" WAVE
INDEX 01 00:00:00



Показать сообщения:    

Текущее время: 05-Дек 05:32

Часовой пояс: UTC + 3


Вы не можете начинать темы
Вы не можете отвечать на сообщения
Вы не можете редактировать свои сообщения
Вы не можете удалять свои сообщения
Вы не можете голосовать в опросах
Вы не можете прикреплять файлы к сообщениям
Вы не можете скачивать файлы