[SACD-R][OF] Richard Egarr, Academy of Ancient Music - Handel: Organ Concertos, Op. 7 - 2009 (Classical; Orchestral; Organ)


Статистика раздачи [Обновить пиров]
Размер:  6.22 GB   |    Зарегистрирован:  8 месяцев 15 дней   |    Скачан:  2 раза

Полного источника не было: 3 месяца 1 день

 
   
 
 
 

[Цитировать]

Richard Egarr, Academy of Ancient Music
Handel: Organ Concertos, Op. 7
- Формат записи/Источник записи: [SACD-R][OF]
Наличие водяных знаков: Нет
Год издания/переиздания диска: 2009
Жанр: Classical; Orchestral; Organ
Издатель(лейбл): Harmonia Mundi
Продолжительность: 02:06:51
Наличие сканов в содержимом раздачи: Да
Контейнер: ISO (*.iso)
Тип рипа: image
Разрядность: 64(2,8 MHz/1 Bit)
Формат: DST64
Количество каналов: 5.0, 2.0-Academy of Ancient Music
Richard Egarr, organ & director-Доп. информация: Harmonia Mundi HMU 807447.48 (2009)
Источник (релизер): ManWhoCan (PS³SACD)
http://sa-cd.net/showtitle/6013
Буклет в PDF-Треклист:

Disc 1:

Orgelkonzert B-dur op. 7 Nr. 1 HWV 306
01. Andante 05:29
02. Andante 04:00
03. Largo e piano 03:31
04. Bourée: Allegro 02:37
Orgelkonzert A-dur op. 7 Nr. 2 HWV 307
05. Improvised Voluntary 01:06
06. Ouverture – A tempo ordinario 06:34
07. Organo ad libitum 02:22
08. Allegro 06:36
Orgelkonzert B-dur op. 7 Nr. 3 HWV 308
09. Andante 05:31
10. Organo (Adagio e Fuga) ad libitum 02:30
11. Spiritoso 04:19
12. Menuet (A) 02:01
13. Menuet (B) 01:30
Orgelkonzert d-moll op. 7 Nr. 4 HWV 309
14. Adagio 04:45
15. Allegro 04:19
16. Organo ad libitum 01:51
17. Allegro 03:58

Disc 2:

Orgelkonzert g-moll op. 7 Nr. 5 HWV 310
01. Allegro ma non troppo, e staccato 03:12
02. Andante larghetto, e staccato 05:18
03. Menuet 01:58
04. Gavotte 01:57
Orgelkonzert B-dur op. 7 Nr. 6 HWV 311
05. Pomposo 03:28
06. Air Lentement 03:28
07. Air, a tempo ordinario 01:39
08. Chaconne F-dur HWV 485 05:36
09. Fuge g-moll HWV 264 04:07
10. Chaconne g-moll HWV 442 17:26
11. Larghetto 02:35
Orgelkonzert F-dur HWV 295 ‘Der Kuckuck und die Nachtigall’
12. Allegro 03:49
13. Organo ad libitum 03:12
14. Larghetto 03:06
15. Allegro 03:25
-

Об альбоме (сборнике)

Handel’s last great published set of instrumental concertos arrived posthumously in 1761. Played here on a chamber organ with real-time improvisations & enlarged continuo support, these magnificent concertos (including the beloved ‘The Cuckoo & the Nightingale’) show Handel at his glorious & compositional best, & allow a concentrated view of his style from the last 20 years of his life.
———————————————————————-
SA-CD.net review by JJ December 9, 2009:
For Handel, the organ was not 1 of his most favorite instruments, for as rightly underlines Michel Roubinet, “Besides the 4 concertos for organ & orchestra, he only composed specifically for the organ just 1 group of 6 fugues: that is very little for a composer who was particularly prolific & had had a solid education as an organist. Furthermore, the craftsmanship of the English organ was still far from that that had been attained on the continent, & most notably in his native Germany (the pedal would appear in England relatively late, 1st with coupled pedal, then much later played independently): the instrument at his disposal in his time must have seemed very insufficient.” Published in 1761, after the composer’s death, Opus 7 is here interpreted with a chamber organ. For the rest, the “Chaconnes” in F major HWV 485 & in G major HWV 442, as well as the “Fugue in G minor HWV 264 are played on the harpsichord. Richard Egarr & the Academy of Ancient Music repeat their performance of Opus 4 (see Opus HD N°40), & once again conjure us by an inventive & penetrating approach, wherein the music resonates as it does rarely in these works. Here is high quality wine that the multicanal perfectly transcends both musically & sonically.
~Jean-Jacques Millo (Translation Lawrence Schulman)

DR 12

foobar2000 1.3.8 / Замер динамического диапазона (DR) 1.1.1
Дата отчёта: 2016-03-07 18:25:56
--------------------------------------------------------------------------------
Анализ: Academy of Ancient Music, Richard Egarr organ & director / Organ Concertos, Op. 7
--------------------------------------------------------------------------------
DR Пики RMS Продолжительность трека
--------------------------------------------------------------------------------
DR13 -5.33 дБ -25.45 дБ 5:30 01-Concerto in B-flat major, Op. 7, No.1-Andante
DR12 -6.33 дБ -26.88 дБ 4:00 02-Concerto in B-flat major, Op. 7, No.1-Andante
DR11 -13.00 дБ -31.13 дБ 3:32 03-Concerto in B-flat major, Op. 7, No.1-Largo, e piano
DR13 -5.41 дБ -27.46 дБ 2:30 04-Concerto in B-flat major, Op. 7, No.1-Bourree: Allegro
DR8 -11.23 дБ -25.94 дБ 1:07 05-Concerto in A major, Op. 7 No. 2-Improvised Voluntary
DR12 -4.41 дБ -24.75 дБ 6:35 06-Concerto in A major, Op. 7 No. 2-Ouverture-A tempo ordinario
DR8 -15.02 дБ -30.49 дБ 2:23 07-Concerto in A major, Op. 7 No. 2-Organo ad libitum
DR13 -4.87 дБ -27.30 дБ 6:30 08-Concerto in A major, Op. 7 No. 2-Allegro
DR13 -5.99 дБ -26.15 дБ 5:32 09-Concerto in B-flat major, Op. 7 No. 3-Andante
DR9 -11.84 дБ -29.45 дБ 2:31 10-Concerto in B-flat major, Op. 7 No. 3-Organo (Adagio e Fuga) ad libitum
DR13 -5.15 дБ -26.10 дБ 4:19 11-Concerto in B-flat major, Op. 7 No. 3-Spiritoso
DR11 -7.51 дБ -25.13 дБ 2:02 12-Concerto in B-flat major, Op. 7 No. 3-Menuet (A)
DR12 -6.38 дБ -25.73 дБ 1:24 13-Concerto in B-flat major, Op. 7 No. 3-Menuet (B)
DR12 -7.53 дБ -28.23 дБ 4:46 14-Concerto in D minor, Op. 7, No. 4-Adagio
DR14 -5.45 дБ -27.68 дБ 4:19 15-Concerto in D minor, Op. 7, No. 4-Allegro
DR11 -13.98 дБ -36.57 дБ 1:51 16-Concerto in D minor, Op. 7, No. 4-Organo ad libitum
DR12 -5.61 дБ -25.18 дБ 3:59 17-Concerto in D minor, Op. 7, No. 4-Allegro
--------------------------------------------------------------------------------
Количество треков: 17
Реальные значения DR: DR12
Частота: 2822400 Гц / Частота PCM: 88200 Гц
Каналов: 5
Разрядность: 24
Битрейт: 14112 кбит/с
Кодек: DST64
================================================================================
==========================================================================================================================
foobar2000 1.3.8 / Замер динамического диапазона (DR) 1.1.1
Дата отчёта: 2016-03-07 18:55:32
--------------------------------------------------------------------------------
Анализ: Academy of Ancient Music, Richard Egarr organ & director / Organ Concertos, Op. 7
--------------------------------------------------------------------------------
DR Пики RMS Продолжительность трека
--------------------------------------------------------------------------------
DR13 -6.38 дБ -27.07 дБ 3:12 01-Concerto in G minor, Op. 7 No. 5-Allegro ma non troppo, e staccato
DR14 -6.25 дБ -29.35 дБ 5:19 02-Concerto in G minor, Op. 7 No. 5-Andante larghetto, e staccato
DR12 -6.81 дБ -25.12 дБ 1:59 03-Concerto in G minor, Op. 7 No. 5-Menuet
DR12 -5.81 дБ -25.23 дБ 1:50 04-Concerto in G minor, Op. 7 No. 5-Gavotte
DR12 -4.85 дБ -24.30 дБ 3:29 05-Concerto in B-flat major, Op.7 No. 6-Pomposo
DR12 -5.75 дБ -27.61 дБ 3:28 06-Concerto in B-flat major, Op.7 No. 6-Air Lentement
DR11 -4.41 дБ -23.29 дБ 1:34 07-Concerto in B-flat major, Op.7 No. 6-Air, a tempo ordinario
DR12 -16.35 дБ -35.01 дБ 5:37 08-Chaconne in F Major
DR12 -16.63 дБ -35.74 дБ 4:08 09-Fugue in G minor
DR13 -16.49 дБ -35.19 дБ 17:19 10-Chaconne in G major
DR12 -10.76 дБ -30.03 дБ 2:35 11-Concerto in F major "The Cuckoo & the Nightingale"-Larghetto
DR13 -8.06 дБ -29.65 дБ 3:49 12-Concerto in F major "The Cuckoo & the Nightingale"-Allegro
DR9 -20.00 дБ -35.89 дБ 3:13 13-Concerto in F major "The Cuckoo & the Nightingale"-Organo ad libitum
DR12 -14.09 дБ -34.01 дБ 3:06 14-Concerto in F major "The Cuckoo & the Nightingale"-Larghetto
DR12 -8.60 дБ -27.48 дБ 3:25 15-Concerto in F major "The Cuckoo & the Nightingale"-Allegro
--------------------------------------------------------------------------------
Количество треков: 15
Реальные значения DR: DR12
Частота: 2822400 Гц / Частота PCM: 88200 Гц
Каналов: 5
Разрядность: 24
Битрейт: 14112 кбит/с
Кодек: DST64
================================================================================
--------------------------------------------------------------------------------
Анализ: Academy of Ancient Music, Richard Egarr organ & director / Organ Concertos, Op. 7
--------------------------------------------------------------------------------
DR Пики RMS Продолжительность трека
--------------------------------------------------------------------------------
DR13 -6.38 дБ -24.43 дБ 3:12 01-Concerto in G minor, Op. 7 No. 5-Allegro ma non troppo, e staccato
DR15 -6.24 дБ -26.74 дБ 5:19 02-Concerto in G minor, Op. 7 No. 5-Andante larghetto, e staccato
DR12 -6.82 дБ -22.43 дБ 1:59 03-Concerto in G minor, Op. 7 No. 5-Menuet
DR12 -5.81 дБ -22.57 дБ 1:50 04-Concerto in G minor, Op. 7 No. 5-Gavotte
DR12 -4.84 дБ -21.64 дБ 3:29 05-Concerto in B-flat major, Op.7 No. 6-Pomposo
DR12 -5.75 дБ -25.00 дБ 3:28 06-Concerto in B-flat major, Op.7 No. 6-Air Lentement
DR12 -4.40 дБ -20.58 дБ 1:34 07-Concerto in B-flat major, Op.7 No. 6-Air, a tempo ordinario
DR12 -16.12 дБ -31.49 дБ 5:37 08-Chaconne in F Major
DR12 -16.50 дБ -32.33 дБ 4:08 09-Fugue in G minor
DR13 -15.05 дБ -31.40 дБ 17:19 10-Chaconne in G major
DR12 -10.75 дБ -26.94 дБ 2:35 11-Concerto in F major "The Cuckoo & the Nightingale"-Larghetto
DR13 -8.06 дБ -26.50 дБ 3:49 12-Concerto in F major "The Cuckoo & the Nightingale"-Allegro
DR9 -19.99 дБ -33.02 дБ 3:13 13-Concerto in F major "The Cuckoo & the Nightingale"-Organo ad libitum
DR12 -14.06 дБ -30.97 дБ 3:06 14-Concerto in F major "The Cuckoo & the Nightingale"-Larghetto
DR12 -8.62 дБ -24.35 дБ 3:25 15-Concerto in F major "The Cuckoo & the Nightingale"-Allegro
--------------------------------------------------------------------------------
Количество треков: 15
Реальные значения DR: DR12
Частота: 2822400 Гц / Частота PCM: 88200 Гц
Каналов: 2
Разрядность: 24
Битрейт: 5645 кбит/с
Кодек: DST64
================================================================================
[teatrix.ru].t23238.torrent 
Торрент: Зарегистрирован [ 2016-03-21 00:30 ] · F956A6DE0160EDB99AB76AF59346073A0D940E82

Скачать .torrent

Скачать

33 KB

Статус: проверено
Скачан: 2 раз
Размер: 6.22 GB
terms.php



Быстрый ответ

Имя:

      
Для отправки сообщений необходимо включить JavaScript
Показать сообщения:    

Текущее время: 05-Дек 03:31

Часовой пояс: UTC + 3


Вы можете начинать темы
Вы можете отвечать на сообщения
Вы не можете редактировать свои сообщения
Вы не можете удалять свои сообщения
Вы не можете голосовать в опросах
Вы не можете прикреплять файлы к сообщениям
Вы можете скачивать файлы