(Classical) Johann Sebastian Bach · Nun komm, der Heiden Heiland (Edna Stern) · 2009, FLAC (tracks+.cue) lossless


 

[Цитировать]

Johann Sebastian Bach
Nun komm, der Heiden Heiland

Préludes, Fugues & Chorals
Жанр: classical
Страна-производитель диска: France
Год издания диска: 2009
Издатель: Zig-Zag Territoires
Номер по каталогу: ZZT090104
Дата записи: 14–18 апреля 2008 года
Аудиокодек: FLAC
Тип рипа: tracks+.cue
Битрейт аудио: lossless
Продолжительность: 01:05:41
Источник: what.cd
Скан коробки в содержимом раздачи есть
Исполнитель: Edna Stern | piano

Треклист

01. Nun komm’ der Heiden Heiland, BWV 659 (4:36)
Prélude et fugue No. 2 en Do min, BWV 847
02. Prélude (1:50)
03. Fugue (1:36)
Prélude et fugue No. 15 en Sol Maj, BWV 860
04. Prélude (0:57)
05. Fugue (3:13)
Prélude et fugue No. 10 en mi min, BWV 855
06. Prélude (2:21)
07. Fugue (1:54)
08. Choralvorspiel, Op. 122 No. 5 · “Schmuecke dich O liebe Seele” (2:33)
Prélude et fugue No. 9 en Mi Maj, BWV 854
09. Prélude (1:30)
10. Fugue (1:17)
Prélude et fugue No. 19 en La Maj, BWV 864
11. Prélude (1:42)
12. Fugue (2:35)
Prélude et fugue No. 6 en ré min, BWV 851
13. Prélude (1:48)
14. Fugue (2:48)
15. Das Orgelbüchlein, BWV 639 · “Ich ruf’zu dir, Herr Jesu Christ” (2:49)
Prélude et fugue No. 12 en fa min, BWV 857
16. Prélude (2:10)
17. Fugue (4:22)
Prélude et fugue No. 11 en Fa Maj, BWV 856
18. Prélude (1:24)
19. Fugue (1:44)
Prélude et fugue No. 22 en Si bémol min, BWV 867
20. Prélude (2:29)
21. Fugue (2:38)
22. Wachet auf, ruft uns die Stimme, BWV 645 (cantate BWV 140) (3:44)
Prélude et fugue No. 21 en Si bémol Maj, BWV 866
23. Prélude (1:24)
24. Fugue (1:58)
Prélude et fugue No. 17 en La bémol Maj, BWV 862
25. Prélude (1:25)
26. Fugue (2:17)
Prélude et fugue No. 7 en Mi bémol Maj, BWV 852
27. Prélude (4:09)
28. Fugue (2:28)
1, 15, 22 — транскрипции F. Busoni

Лог создания рипа

Exact Audio Copy V0.99 prebeta 5 from 4. May 2009
EAC extraction logfile from 25. July 2010, 21:48
Johann Sebastian Bach / Nun komm' der Heiden Heiland (piano: Edna Stern)
Used drive : MATSHITADVD-R UJ-857E Adapter: 0 ID: 0
Read mode : Secure
Utilize accurate stream : Yes
Defeat audio cache : Yes
Make use of C2 pointers : No
Read offset correction : 102
Overread into Lead-In and Lead-Out : No
Fill up missing offset samples with silence : Yes
Delete leading and trailing silent blocks : No
Null samples used in CRC calculations : Yes
Used interface : Installed external ASPI interface
Gap handling : Appended to previous track
Used output format : User Defined Encoder
Selected bitrate : 320 kBit/s
Quality : High
Add ID3 tag : No
Command line compressor : C:\Program Files\Exact Audio Copy\Flac\flac.exe
Additional command line options : -V -8 -T "artist=%a" -T "title=%t" -T "album=%g" -T "date=%y" -T "tracknumber=%n" -T "genre=%m" %s
TOC of the extracted CD
Track | Start | Length | Start sector | End sector
---------------------------------------------------------
1 | 0:00.00 | 4:36.33 | 0 | 20732
2 | 4:36.33 | 1:50.09 | 20733 | 28991
3 | 6:26.42 | 1:35.45 | 28992 | 36161
4 | 8:02.12 | 0:57.00 | 36162 | 40436
5 | 8:59.12 | 3:13.15 | 40437 | 54926
6 | 12:12.27 | 2:21.14 | 54927 | 65515
7 | 14:33.41 | 1:53.52 | 65516 | 74042
8 | 16:27.18 | 2:33.16 | 74043 | 85533
9 | 19:00.34 | 1:30.09 | 85534 | 92292
10 | 20:30.43 | 1:16.66 | 92293 | 98058
11 | 21:47.34 | 1:41.38 | 98059 | 105671
12 | 23:28.72 | 2:34.40 | 105672 | 117261
13 | 26:03.37 | 1:48.21 | 117262 | 125382
14 | 27:51.58 | 2:48.22 | 125383 | 138004
15 | 30:40.05 | 2:48.57 | 138005 | 150661
16 | 33:28.62 | 2:10.15 | 150662 | 160426
17 | 35:39.02 | 4:21.51 | 160427 | 180052
18 | 40:00.53 | 1:24.32 | 180053 | 186384
19 | 41:25.10 | 1:44.06 | 186385 | 194190
20 | 43:09.16 | 2:29.09 | 194191 | 205374
21 | 45:38.25 | 2:38.37 | 205375 | 217261
22 | 48:16.62 | 3:44.17 | 217262 | 234078
23 | 52:01.04 | 1:23.54 | 234079 | 240357
24 | 53:24.58 | 1:58.33 | 240358 | 249240
25 | 55:23.16 | 1:24.47 | 249241 | 255587
26 | 56:47.63 | 2:16.47 | 255588 | 265834
27 | 59:04.35 | 4:08.64 | 265835 | 284498
28 | 63:13.24 | 2:27.45 | 284499 | 295568
Track 1
Filename C:\Program Files\Exact Audio Copy\Johann Sebastian Bach - - Nun komm' der Heiden Heiland (piano- Edna Stern)\01 - Nun komm' der Heiden Heiland BWV 659 - Trans. Busoni.wav
Pre-gap length 0:00:02.00
Peak level 97.4 %
Track quality 100.0 %
Test CRC E6976524
Copy CRC E6976524
Accurately ripped (confidence 1) [8D561C9A]
Copy OK
Track 2
Filename C:\Program Files\Exact Audio Copy\Johann Sebastian Bach - - Nun komm' der Heiden Heiland (piano- Edna Stern)\02 - Prélude No. 2 BWV 847 - Do mineur.wav
Peak level 72.7 %
Track quality 100.0 %
Test CRC AE1DF7B3
Copy CRC AE1DF7B3
Accurately ripped (confidence 1) [056D10C0]
Copy OK
Track 3
Filename C:\Program Files\Exact Audio Copy\Johann Sebastian Bach - - Nun komm' der Heiden Heiland (piano- Edna Stern)\03 - Fugue No. 2 BWV 847 - Do mineur.wav
Peak level 72.3 %
Track quality 100.0 %
Test CRC B58A2BD9
Copy CRC B58A2BD9
Accurately ripped (confidence 1) [5343DC8D]
Copy OK
Track 4
Filename C:\Program Files\Exact Audio Copy\Johann Sebastian Bach - - Nun komm' der Heiden Heiland (piano- Edna Stern)\04 - Prélude No. 15 BWV 860 - Sol majeur.wav
Peak level 65.6 %
Track quality 100.0 %
Test CRC F8961F82
Copy CRC F8961F82
Accurately ripped (confidence 1) [7F1DC703]
Copy OK
Track 5
Filename C:\Program Files\Exact Audio Copy\Johann Sebastian Bach - - Nun komm' der Heiden Heiland (piano- Edna Stern)\05 - Fugue No. 15 BWV 860 - Sol majeur.wav
Peak level 91.9 %
Track quality 100.0 %
Test CRC CFFB57F3
Copy CRC CFFB57F3
Accurately ripped (confidence 1) [E6F8F16D]
Copy OK
Track 6
Filename C:\Program Files\Exact Audio Copy\Johann Sebastian Bach - - Nun komm' der Heiden Heiland (piano- Edna Stern)\06 - Prélude No. 10 BWV 855 - Mi mineur.wav
Peak level 99.6 %
Track quality 100.0 %
Test CRC C36DAF42
Copy CRC C36DAF42
Accurately ripped (confidence 1) [C91B7FF3]
Copy OK
Track 7
Filename C:\Program Files\Exact Audio Copy\Johann Sebastian Bach - - Nun komm' der Heiden Heiland (piano- Edna Stern)\07 - Fugue No. 10 BWV 855 - Mi mineur.wav
Peak level 86.4 %
Track quality 100.0 %
Test CRC 6BCBD5FD
Copy CRC 6BCBD5FD
Accurately ripped (confidence 1) [6EDC823F]
Copy OK
Track 8
Filename C:\Program Files\Exact Audio Copy\Johann Sebastian Bach - - Nun komm' der Heiden Heiland (piano- Edna Stern)\08 - Schmücke dich O liebe Seele - Choralvorspiel Op. 22 No. 5 Brahms.wav
Peak level 44.5 %
Track quality 100.0 %
Test CRC 3577A64C
Copy CRC 3577A64C
Accurately ripped (confidence 1) [41E8CF82]
Copy OK
Track 9
Filename C:\Program Files\Exact Audio Copy\Johann Sebastian Bach - - Nun komm' der Heiden Heiland (piano- Edna Stern)\09 - Prélude No. 9 BWV 854 - Mi majeur.wav
Peak level 41.7 %
Track quality 100.0 %
Test CRC ADAF2CE3
Copy CRC ADAF2CE3
Accurately ripped (confidence 1) [B99C21C1]
Copy OK
Track 10
Filename C:\Program Files\Exact Audio Copy\Johann Sebastian Bach - - Nun komm' der Heiden Heiland (piano- Edna Stern)\10 - Fugue No. 9 BWV 854 - Mi majeur.wav
Peak level 67.3 %
Track quality 100.0 %
Test CRC A6F86379
Copy CRC A6F86379
Accurately ripped (confidence 1) [3FC44166]
Copy OK
Track 11
Filename C:\Program Files\Exact Audio Copy\Johann Sebastian Bach - - Nun komm' der Heiden Heiland (piano- Edna Stern)\11 - Prélude No. 19 BWV 864 - La majeur.wav
Peak level 48.1 %
Track quality 100.0 %
Test CRC 9A0A586B
Copy CRC 9A0A586B
Accurately ripped (confidence 1) [091FAAB4]
Copy OK
Track 12
Filename C:\Program Files\Exact Audio Copy\Johann Sebastian Bach - - Nun komm' der Heiden Heiland (piano- Edna Stern)\12 - Fugue No. 19 BWV 864 - La majeur.wav
Peak level 82.5 %
Track quality 100.0 %
Test CRC FE8DD2A2
Copy CRC FE8DD2A2
Accurately ripped (confidence 1) [25A08EFC]
Copy OK
Track 13
Filename C:\Program Files\Exact Audio Copy\Johann Sebastian Bach - - Nun komm' der Heiden Heiland (piano- Edna Stern)\13 - Prélude No. 6 BWV 851 - Ré mineur.wav
Peak level 73.6 %
Track quality 100.0 %
Test CRC 85A0F371
Copy CRC 85A0F371
Accurately ripped (confidence 1) [8CF38BA0]
Copy OK
Track 14
Filename C:\Program Files\Exact Audio Copy\Johann Sebastian Bach - - Nun komm' der Heiden Heiland (piano- Edna Stern)\14 - Fugue No. 6 BWV 851 - Ré mineur.wav
Peak level 75.3 %
Track quality 100.0 %
Test CRC 6A877991
Copy CRC 6A877991
Accurately ripped (confidence 1) [C05C16F3]
Copy OK
Track 15
Filename C:\Program Files\Exact Audio Copy\Johann Sebastian Bach - - Nun komm' der Heiden Heiland (piano- Edna Stern)\15 - Ich ruf' zu Dir, Herr Jesu Christ BWV 639 - Trans. Busoni.wav
Peak level 40.3 %
Track quality 100.0 %
Test CRC 16ED009A
Copy CRC 16ED009A
Accurately ripped (confidence 1) [7B630163]
Copy OK
Track 16
Filename C:\Program Files\Exact Audio Copy\Johann Sebastian Bach - - Nun komm' der Heiden Heiland (piano- Edna Stern)\16 - Prélude et fugue No. 12 BWV 857 - Fa mineur.wav
Peak level 62.6 %
Track quality 100.0 %
Test CRC 66B96B1D
Copy CRC 66B96B1D
Accurately ripped (confidence 1) [EFF6D600]
Copy OK
Track 17
Filename C:\Program Files\Exact Audio Copy\Johann Sebastian Bach - - Nun komm' der Heiden Heiland (piano- Edna Stern)\17 - Prélude et fugue No. 12 BWV 857 - Fa mineur.wav
Peak level 84.6 %
Track quality 99.9 %
Test CRC 6BE97543
Copy CRC 6BE97543
Accurately ripped (confidence 1) [97CA8813]
Copy OK
Track 18
Filename C:\Program Files\Exact Audio Copy\Johann Sebastian Bach - - Nun komm' der Heiden Heiland (piano- Edna Stern)\18 - Prélude et fugue No. 11 BWV 856 - Fa majeur.wav
Peak level 59.4 %
Track quality 100.0 %
Test CRC 44A1675C
Copy CRC 44A1675C
Accurately ripped (confidence 1) [1289B654]
Copy OK
Track 19
Filename C:\Program Files\Exact Audio Copy\Johann Sebastian Bach - - Nun komm' der Heiden Heiland (piano- Edna Stern)\19 - Fugue No. 11 BWV 856 - Fa majeur.wav
Peak level 57.3 %
Track quality 100.0 %
Test CRC 3700D3D8
Copy CRC 3700D3D8
Accurately ripped (confidence 1) [A8763F39]
Copy OK
Track 20
Filename C:\Program Files\Exact Audio Copy\Johann Sebastian Bach - - Nun komm' der Heiden Heiland (piano- Edna Stern)\20 - Prélude No. 22 BWV 867 - Si bemol mineur.wav
Peak level 66.9 %
Track quality 100.0 %
Test CRC 7DDFFBD8
Copy CRC 7DDFFBD8
Accurately ripped (confidence 1) [110478B8]
Copy OK
Track 21
Filename C:\Program Files\Exact Audio Copy\Johann Sebastian Bach - - Nun komm' der Heiden Heiland (piano- Edna Stern)\21 - Fugue No. 22 BWV 867 - Si bemol mineur.wav
Peak level 73.2 %
Track quality 100.0 %
Test CRC E2E33D62
Copy CRC E2E33D62
Accurately ripped (confidence 1) [5D621C01]
Copy OK
Track 22
Filename C:\Program Files\Exact Audio Copy\Johann Sebastian Bach - - Nun komm' der Heiden Heiland (piano- Edna Stern)\22 - Wachet auf, ruft uns die Stimme BWV 645 - Trans. Busoni.wav
Peak level 89.0 %
Track quality 100.0 %
Test CRC 2DC79D26
Copy CRC 2DC79D26
Accurately ripped (confidence 1) [0B81E501]
Copy OK
Track 23
Filename C:\Program Files\Exact Audio Copy\Johann Sebastian Bach - - Nun komm' der Heiden Heiland (piano- Edna Stern)\23 - Prélude No. 21 BWV 866 - Si bemol majeur.wav
Peak level 98.6 %
Track quality 100.0 %
Test CRC 9801A5AF
Copy CRC 9801A5AF
Accurately ripped (confidence 1) [5F885271]
Copy OK
Track 24
Filename C:\Program Files\Exact Audio Copy\Johann Sebastian Bach - - Nun komm' der Heiden Heiland (piano- Edna Stern)\24 - Fugue No. 21 BWV 866 - Si bemol majeur.wav
Peak level 57.2 %
Track quality 100.0 %
Test CRC B6D94F77
Copy CRC B6D94F77
Accurately ripped (confidence 1) [39A4ACEC]
Copy OK
Track 25
Filename C:\Program Files\Exact Audio Copy\Johann Sebastian Bach - - Nun komm' der Heiden Heiland (piano- Edna Stern)\25 - Prélude No. 17 BWV 862 - La bemol majeur.wav
Peak level 50.7 %
Track quality 100.0 %
Test CRC 6E40D37F
Copy CRC 6E40D37F
Accurately ripped (confidence 1) [17516923]
Copy OK
Track 26
Filename C:\Program Files\Exact Audio Copy\Johann Sebastian Bach - - Nun komm' der Heiden Heiland (piano- Edna Stern)\26 - Fugue No. 17 BWV 862 - La bemol majeur.wav
Peak level 87.3 %
Track quality 100.0 %
Test CRC C858A153
Copy CRC C858A153
Accurately ripped (confidence 1) [C10BA690]
Copy OK
Track 27
Filename C:\Program Files\Exact Audio Copy\Johann Sebastian Bach - - Nun komm' der Heiden Heiland (piano- Edna Stern)\27 - Prélude No. 7 BWV 852 - Mi bemol majeur.wav
Peak level 96.2 %
Track quality 100.0 %
Test CRC A728E862
Copy CRC A728E862
Accurately ripped (confidence 1) [528D5A29]
Copy OK
Track 28
Filename C:\Program Files\Exact Audio Copy\Johann Sebastian Bach - - Nun komm' der Heiden Heiland (piano- Edna Stern)\28 - Fugue No. 7 BWV 852 - Mi bemol majeur.wav
Peak level 79.0 %
Track quality 100.0 %
Test CRC D472B0AB
Copy CRC D472B0AB
Accurately ripped (confidence 1) [79299FB6]
Copy OK
All tracks accurately ripped
No errors occurred
End of status report

Содержание индексной карты (.CUE)

REM DATE 2009
REM DISCID 8D0F641C
REM COMMENT "ExactAudioCopy v0.99pb5"
PERFORMER "Edna Stern"
TITLE "Nun komm, der Heiden Heiland"
FILE "01. Nun komm’ der Heiden Heiland, BWV 659.wav" WAVE
TRACK 01 AUDIO
TITLE "Nun komm’ der Heiden Heiland, BWV 659"
PERFORMER "Edna Stern"
INDEX 01 00:00:00
FILE "02. Prélude et fugue No. 2 en Do min, BWV 847 · Prélude.wav" WAVE
TRACK 02 AUDIO
TITLE "Prélude et fugue No. 2 en Do min, BWV 847 · Prélude"
PERFORMER "Edna Stern"
INDEX 01 00:00:00
FILE "03. Prélude et fugue No. 2 en Do min, BWV 847 · Fugue.wav" WAVE
TRACK 03 AUDIO
TITLE "Prélude et fugue No. 2 en Do min, BWV 847 · Fugue"
PERFORMER "Edna Stern"
INDEX 01 00:00:00
FILE "04. Prélude et fugue No. 15 en Sol Maj, BWV 860 · Prélude.wav" WAVE
TRACK 04 AUDIO
TITLE "Prélude et fugue No. 15 en Sol Maj, BWV 860 · Prélude"
PERFORMER "Edna Stern"
INDEX 01 00:00:00
FILE "05. Prélude et fugue No. 15 en Sol Maj, BWV 860 · Fugue.wav" WAVE
TRACK 05 AUDIO
TITLE "Prélude et fugue No. 15 en Sol Maj, BWV 860 · Fugue"
PERFORMER "Edna Stern"
INDEX 01 00:00:00
FILE "06. Prélude et fugue No. 10 en mi min, BWV 855 · Prélude.wav" WAVE
TRACK 06 AUDIO
TITLE "Prélude et fugue No. 10 en mi min, BWV 855 · Prélude"
PERFORMER "Edna Stern"
INDEX 01 00:00:00
FILE "07. Prélude et fugue No. 10 en mi min, BWV 855 · Fugue.wav" WAVE
TRACK 07 AUDIO
TITLE "Prélude et fugue No. 10 en mi min, BWV 855 · Fugue"
PERFORMER "Edna Stern"
INDEX 01 00:00:00
FILE "08. Choralvorspiel, Op. 122 No. 5 · “Schmuecke dich O liebe Seele”.wav" WAVE
TRACK 08 AUDIO
TITLE "Choralvorspiel, Op. 122 No. 5 · “Schmuecke dich O liebe Seele”"
PERFORMER "Edna Stern"
INDEX 01 00:00:00
FILE "09. Prélude et fugue No. 9 en Mi Maj, BWV 854 · Prélude.wav" WAVE
TRACK 09 AUDIO
TITLE "Prélude et fugue No. 9 en Mi Maj, BWV 854 · Prélude"
PERFORMER "Edna Stern"
INDEX 01 00:00:00
FILE "10. Prélude et fugue No. 9 en Mi Maj, BWV 854 · Fugue.wav" WAVE
TRACK 10 AUDIO
TITLE "Prélude et fugue No. 9 en Mi Maj, BWV 854 · Fugue"
PERFORMER "Edna Stern"
INDEX 01 00:00:00
FILE "11. Prélude et fugue No. 19 en La Maj, BWV 864 · Prélude.wav" WAVE
TRACK 11 AUDIO
TITLE "Prélude et fugue No. 19 en La Maj, BWV 864 · Prélude"
PERFORMER "Edna Stern"
INDEX 01 00:00:00
FILE "12. Prélude et fugue No. 19 en La Maj, BWV 864 · Fugue.wav" WAVE
TRACK 12 AUDIO
TITLE "Prélude et fugue No. 19 en La Maj, BWV 864 · Fugue"
PERFORMER "Edna Stern"
INDEX 01 00:00:00
FILE "13. Prélude et fugue No. 6 en ré min, BWV 851 · Prélude.wav" WAVE
TRACK 13 AUDIO
TITLE "Prélude et fugue No. 6 en ré min, BWV 851 · Prélude"
PERFORMER "Edna Stern"
INDEX 01 00:00:00
FILE "14. Prélude et fugue No. 6 en ré min, BWV 851 · Fugue.wav" WAVE
TRACK 14 AUDIO
TITLE "Prélude et fugue No. 6 en ré min, BWV 851 · Fugue"
PERFORMER "Edna Stern"
INDEX 01 00:00:00
FILE "15. Das Orgelbüchlein, BWV 639 · “Ich ruf’zu dir, Herr Jesu Christ”.wav" WAVE
TRACK 15 AUDIO
TITLE "Das Orgelbüchlein, BWV 639 · “Ich ruf’zu dir, Herr Jesu Christ”"
PERFORMER "Edna Stern"
INDEX 01 00:00:00
FILE "16. Prélude et fugue No. 12 en fa min, BWV 857 · Prélude.wav" WAVE
TRACK 16 AUDIO
TITLE "Prélude et fugue No. 12 en fa min, BWV 857 · Prélude"
PERFORMER "Edna Stern"
INDEX 01 00:00:00
FILE "17. Prélude et fugue No. 12 en fa min, BWV 857 · Fugue.wav" WAVE
TRACK 17 AUDIO
TITLE "Prélude et fugue No. 12 en fa min, BWV 857 · Fugue"
PERFORMER "Edna Stern"
INDEX 01 00:00:00
FILE "18. Prélude et fugue No. 11 en Fa Maj, BWV 856 · Prélude.wav" WAVE
TRACK 18 AUDIO
TITLE "Prélude et fugue No. 11 en Fa Maj, BWV 856 · Prélude"
PERFORMER "Edna Stern"
INDEX 01 00:00:00
FILE "19. Prélude et fugue No. 11 en Fa Maj, BWV 856 · Fugue.wav" WAVE
TRACK 19 AUDIO
TITLE "Prélude et fugue No. 11 en Fa Maj, BWV 856 · Fugue"
PERFORMER "Edna Stern"
INDEX 01 00:00:00
FILE "20. Prélude et fugue No. 22 en Si bémol min, BWV 867 · Prélude.wav" WAVE
TRACK 20 AUDIO
TITLE "Prélude et fugue No. 22 en Si bémol min, BWV 867 · Prélude"
PERFORMER "Edna Stern"
INDEX 01 00:00:00
FILE "21. Prélude et fugue No. 22 en Si bémol min, BWV 867 · Fugue.wav" WAVE
TRACK 21 AUDIO
TITLE "Prélude et fugue No. 22 en Si bémol min, BWV 867 · Fugue"
PERFORMER "Edna Stern"
INDEX 01 00:00:00
FILE "22. Wachet auf, ruft uns die Stimme, BWV 645 (cantate BWV 140).wav" WAVE
TRACK 22 AUDIO
TITLE "Wachet auf, ruft uns die Stimme, BWV 645 (cantate BWV 140)"
PERFORMER "Edna Stern"
INDEX 01 00:00:00
FILE "23. Prélude et fugue No. 21 en Si bémol Maj, BWV 866 · Prélude.wav" WAVE
TRACK 23 AUDIO
TITLE "Prélude et fugue No. 21 en Si bémol Maj, BWV 866 · Prélude"
PERFORMER "Edna Stern"
INDEX 01 00:00:00
FILE "24. Prélude et fugue No. 21 en Si bémol Maj, BWV 866 · Fugue.wav" WAVE
TRACK 24 AUDIO
TITLE "Prélude et fugue No. 21 en Si bémol Maj, BWV 866 · Fugue"
PERFORMER "Edna Stern"
INDEX 01 00:00:00
FILE "25. Prélude et fugue No. 17 en La bémol Maj, BWV 862 · Prélude.wav" WAVE
TRACK 25 AUDIO
TITLE "Prélude et fugue No. 17 en La bémol Maj, BWV 862 · Prélude"
PERFORMER "Edna Stern"
INDEX 01 00:00:00
FILE "26. Prélude et fugue No. 17 en La bémol Maj, BWV 862 · Fugue.wav" WAVE
TRACK 26 AUDIO
TITLE "Prélude et fugue No. 17 en La bémol Maj, BWV 862 · Fugue"
PERFORMER "Edna Stern"
INDEX 01 00:00:00
FILE "27. Prélude et fugue No. 7 en Mi bémol Maj, BWV 852 · Prélude.wav" WAVE
TRACK 27 AUDIO
TITLE "Prélude et fugue No. 7 en Mi bémol Maj, BWV 852 · Prélude"
PERFORMER "Edna Stern"
INDEX 01 00:00:00
FILE "28. Prélude et fugue No. 7 en Mi bémol Maj, BWV 852 · Fugue.wav" WAVE
TRACK 28 AUDIO
TITLE "Prélude et fugue No. 7 en Mi bémol Maj, BWV 852 · Fugue"
PERFORMER "Edna Stern"
INDEX 01 00:00:00



Показать сообщения:    

Текущее время: 08-Дек 03:15

Часовой пояс: UTC + 3


Вы не можете начинать темы
Вы не можете отвечать на сообщения
Вы не можете редактировать свои сообщения
Вы не можете удалять свои сообщения
Вы не можете голосовать в опросах
Вы не можете прикреплять файлы к сообщениям
Вы не можете скачивать файлы