Завтра мы исчезнем / Tomorrow We Disappear (Джим Голдблюм / Jim Goldblum, Адам М. Вебер / Adam M. Weber) [2014, Индия, США, документальный, драма, DVB] DVO (24 ДОК)


Статистика раздачи [Обновить пиров]
Размер:  993 MB   |    Зарегистрирован:  8 месяцев 19 дней   |    Скачан:  0 раз

Полного источника не было: Никогда

 
   
 
 
 

[Цитировать]

Завтра мы исчезнем
Tomorrow We Disappear- Дата/Год выпуска: 2014
Страна: Индия, США
Жанр: документальный, драма
Продолжительность: 00:56:20
Перевод: Профессиональный (двухголосый закадровый) "24 ДОК"
Русские субтитры: есть
Режиссер: Джим Голдблюм / Jim Goldblum, Адам М. Вебер / Adam M. Weber
В ролях: Пуран Бхат, Рехман Шах
Телеканал: 24 ДОКОписание: Катпутли — дословно "поселение кукол": много лет назад именно кукольники основали эту городскую колонию. Теперь это своеобразная достопримечательность Нью-Дели, где живут странствующие артисты и художники, циркачи, фокусники, заклинатели змей и силачи, поднимающие гири одним веком. Среди героев — кукольник Пуран Бхат, обладатель национальных наград за сохранение традиционной культуры, объездивший как ее представитель пол-мира, маг Рехман Шах, развлекающий публику фокусами не для слабонервных, вроде весьма достоверного отрезания языка, акробат Майя и ее братья, проходившие тренировки буквально с младенчества и теперь способные пальцами ног вдеть нитку в иголку. Удивительные люди населяют район, который стороннему наблюдателю может показаться клоакой, но его жители дорожат своим карнавальным обиталищем, переселиться в блочные многоэтажки для них равносильно гибели: "наш образ жизни и искусство не втиснуть в квартиры!". А угроза переселения есть: на месте артистических трущоб Катпутли должны воздвигнуть небоскреб и торговый центр...
В страстном фильме двух американских постановщиков город становится полем битвы за свободу — творить и жить. Силы, конечно, не равны: с одной стороны, пусть и титулованные, но все же артисты, легкие люди, с другой — большой бизнес, срощенный с государственной властью. Однако художники не сдаются — они-то знают по опыту собственных тел, что ничего невозможного нет. И кинематографисты на их стороне: создали сайт, где можно следить за событиями и оказывать посильную помощь.
Доп. информация: Eutelsat 36B (W7) DVB-S
Награды: премия Spirit Award лучшему режиссеру EBS International Documentary Festival 2014; Гран-при жюри за лучший документальный фильм Florida Film Festival 2014; номинация на лучший иностранный документальный фильм Hot:Docs Canadian International Documentary Festival 2014; др. награды.

качество: DVB
формат: MKV
Видео: MPEG Video 2, 720x576 (4:3), 25 fps, ~2223 kbps avg, 0.214 bit/pixel
Аудио: MPEG Audio 2, 2 ch, 48 kHz, 192 kbps
Формат субтитров: hardsub (неотключаемые)
Доп. информация о субтитрах: интертитры - замена видеоряда

MediaInfo

General
Unique ID : 243060134373208821872329706163543514138 (0xB6DBADD9FF2417349BEB2E7DC2049C1A)
Complete name : [apreder]Tomorrow_We_Disappear(2014)DVB.mkv
Format : Matroska
Format version : Version 2
File size : 993 MiB
Duration : 56mn 20s
Overall bit rate mode : Variable
Overall bit rate : 2 464 Kbps
Movie name : Tomorrow We Disappear
Released date : 2014-04-19
Encoded date : UTC 2016-03-07 16:35:44
Writing application : mkvmerge v8.9.0 ('Father Daughter') 64bit
Writing library : libebml v1.3.3 + libmatroska v1.4.4
Cover : Yes
Attachments : cover.jpg / cover_small.jpg
DIRECTOR : Jim Goldblum, Adam M. Weber
GENRE : Documentary
IMDB : tt2041529
KEYWORDS : rutracker.org
LAW_RATING : 16+
Video
ID : 1
Format : MPEG Video
Format version : Version 2
Format profile : Main@Main
Format settings, BVOP : Yes
Format settings, Matrix : Custom
Format settings, GOP : M=3, N=36
Format settings, picture structure : Frame
Codec ID : V_MPEG2
Codec ID/Info : MPEG 1 or 2 Video
Duration : 56mn 20s
Bit rate mode : Variable
Bit rate : 2 223 Kbps
Width : 720 pixels
Height : 576 pixels
Display aspect ratio : 4:3
Frame rate mode : Constant
Frame rate : 25.000 fps
Standard : PAL
Color space : YUV
Chroma subsampling : 4:2:0
Bit depth : 8 bits
Scan type : Interlaced
Scan order : Top Field First
Compression mode : Lossy
Bits/(Pixel*Frame) : 0.214
Time code of first frame : 00:00:00:00
Time code source : Group of pictures header
GOP, Open/Closed : Open
GOP, Open/Closed of first frame : Closed
Stream size : 896 MiB (90%)
Default : Yes
Forced : No
Audio
ID : 2
Format : MPEG Audio
Format version : Version 1
Format profile : Layer 2
Codec ID : A_MPEG/L2
Codec ID/Hint : MP2
Duration : 56mn 20s
Bit rate mode : Constant
Bit rate : 192 Kbps
Channel(s) : 2 channels
Sampling rate : 48.0 KHz
Compression mode : Lossy
Stream size : 77.4 MiB (8%)
Language : Russian
Default : Yes
Forced : No

Скриншот с названием фильма

Скриншоты


Резервные скриншоты


-
[teatrix.ru].t23241.torrent 
Торрент: Зарегистрирован [ 2016-03-21 00:30 ] · EBD0F736AC1F676BDB42450CAC4BB8428AA10170

Скачать .torrent

Скачать

10 KB

Статус: проверено
Скачан: 0 раз
Размер: 993 MB
terms.php



Быстрый ответ

Имя:

      
Для отправки сообщений необходимо включить JavaScript
Показать сообщения:    

Текущее время: 09-Дек 16:37

Часовой пояс: UTC + 3


Вы можете начинать темы
Вы можете отвечать на сообщения
Вы не можете редактировать свои сообщения
Вы не можете удалять свои сообщения
Вы не можете голосовать в опросах
Вы не можете прикреплять файлы к сообщениям
Вы можете скачивать файлы