(Classical) Johann Sebastian Bach · Four Toccatas & Fuges, Schubler Chorales (John Butt) · 2000, FLAC (tracks+.cue) lossless


 

[Цитировать]

Johann Sebastian Bach
Organ Toccatas, Schübler Chorales

Жанр: classical
Страна-производитель диска: ФРГ
Год издания диска: 2000
Издатель: Harmonia Mundi
Номер по каталогу: HMU907249
Дата записи: ?
Аудиокодек: FLAC
Тип рипа: tracks+.cue
Битрейт аудио: lossless
Продолжительность: 01:07:02
Источник: what.cd
Сканы оформления в содержимом раздачи частично присутствуют
Исполнитель: John Butt (Organ of Trinity College, Cambridge)

Треклист

Toccata, Adagio and Fugue in C major, BWV 564
01. Toccata (5:19)
02. Adagio (4:12)
03. Fugue (4:34)
04. Wachet auf, ruft uns die Stimme, BWV 645 (4:08)
05. Wo soll ich fliehen hin, BWV 646 (1:53)
06. Tocatta and Fugue in D minor, BWV 565 (8:19)
07. Wer nur den lieben Gott läßt walten, BWV 647 (3:03)
08. Meine Seele erhebet den Herren, BWV 648 (2:37)
Toccata and Fugue in D minor “Dorian”, BWV 538
09. Toccata (5:19)
10. Fugue (7:40)
11. Ach bleib’ bei uns, Herr Jesu Christ, BWV 649 (2:50)
12. Kommst du nun, Jesu, von Himmel herunter, BWV 650 (3:35)
Toccata and Fugue in F major, BWV 540
13. Toccata (8:32)
14. Fugue (5:02)

Лог создания рипа

Exact Audio Copy V0.99 prebeta 4 from 23. January 2008
EAC extraction logfile from 23. December 2010, 17:43
J.S. Bach (played by John Butt - Organ of Trinity College, Cambridge) / Four Toccatas & Fuges, Schubler Chorales
Used drive : PHILIPS DVDR1648P1 Adapter: 1 ID: 0
Read mode : Secure
Utilize accurate stream : Yes
Defeat audio cache : Yes
Make use of C2 pointers : No
Read offset correction : 618
Overread into Lead-In and Lead-Out : No
Fill up missing offset samples with silence : Yes
Delete leading and trailing silent blocks : No
Null samples used in CRC calculations : Yes
Used interface : Installed external ASPI interface
Gap handling : Appended to previous track
Used output format : User Defined Encoder
Selected bitrate : 320 kBit/s
Quality : High
Add ID3 tag : No
Command line compressor : C:\Archivos de programa\FLAC\flac.exe
Additional command line options : -V -8 -T "artist=%a" -T "title=%t" -T "album=%g" -T "date=%y" -T "tracknumber=%n" -T "genre=%m" %s
TOC of the extracted CD
Track | Start | Length | Start sector | End sector
---------------------------------------------------------
1 | 0:00.00 | 5:18.67 | 0 | 23916
2 | 5:18.67 | 4:12.35 | 23917 | 42851
3 | 9:31.27 | 4:34.20 | 42852 | 63421
4 | 14:05.47 | 4:07.68 | 63422 | 82014
5 | 18:13.40 | 1:53.25 | 82015 | 90514
6 | 20:06.65 | 8:18.47 | 90515 | 127911
7 | 28:25.37 | 3:02.60 | 127912 | 141621
8 | 31:28.22 | 2:36.45 | 141622 | 153366
9 | 34:04.67 | 5:18.63 | 153367 | 177279
10 | 39:23.55 | 7:39.45 | 177280 | 211749
11 | 47:03.25 | 2:50.00 | 211750 | 224499
12 | 49:53.25 | 3:34.42 | 224500 | 240591
13 | 53:27.67 | 8:31.48 | 240592 | 278964
14 | 61:59.40 | 5:02.32 | 278965 | 301646
Track 1
Filename I:\CK\J.S. Bach (played by John Butt - Organ of Trinity College, Cambridge) - 2000 - Four Toccatas & Fuges, Schubler Chorales\01 - Toccata, Adagio and Fugue in C major (BWV 564) - Toccata.wav
Pre-gap length 0:00:02.00
Peak level 78.3 %
Track quality 100.0 %
Test CRC 64AFC8F9
Copy CRC 64AFC8F9
Accurately ripped (confidence 2) [FBB2A6AC]
Copy OK
Track 2
Filename I:\CK\J.S. Bach (played by John Butt - Organ of Trinity College, Cambridge) - 2000 - Four Toccatas & Fuges, Schubler Chorales\02 - Toccata, Adagio and Fugue in C major (BWV 564) - Adagio.wav
Pre-gap length 0:00:02.17
Peak level 23.6 %
Track quality 100.0 %
Test CRC EF9D18F0
Copy CRC EF9D18F0
Accurately ripped (confidence 2) [DE423738]
Copy OK
Track 3
Filename I:\CK\J.S. Bach (played by John Butt - Organ of Trinity College, Cambridge) - 2000 - Four Toccatas & Fuges, Schubler Chorales\03 - Toccata, Adagio and Fugue in C major (BWV 564) - Fugue.wav
Pre-gap length 0:00:01.47
Peak level 62.1 %
Track quality 99.9 %
Test CRC 03F01DCE
Copy CRC 03F01DCE
Accurately ripped (confidence 2) [5246DD7E]
Copy OK
Track 4
Filename I:\CK\J.S. Bach (played by John Butt - Organ of Trinity College, Cambridge) - 2000 - Four Toccatas & Fuges, Schubler Chorales\04 - Wachet auf, ruft uns die Stimme (BWV 645).wav
Pre-gap length 0:00:05.25
Peak level 24.2 %
Track quality 100.0 %
Test CRC EB7FD871
Copy CRC EB7FD871
Accurately ripped (confidence 2) [349A0B09]
Copy OK
Track 5
Filename I:\CK\J.S. Bach (played by John Butt - Organ of Trinity College, Cambridge) - 2000 - Four Toccatas & Fuges, Schubler Chorales\05 - Wo soll ich fliehen hin (BWV 646).wav
Pre-gap length 0:00:03.08
Peak level 14.7 %
Track quality 100.0 %
Test CRC 97B35379
Copy CRC 97B35379
Accurately ripped (confidence 2) [198279A1]
Copy OK
Track 6
Filename I:\CK\J.S. Bach (played by John Butt - Organ of Trinity College, Cambridge) - 2000 - Four Toccatas & Fuges, Schubler Chorales\06 - Tocatta and Fugue in D minor (BWV 565).wav
Pre-gap length 0:00:05.73
Peak level 77.1 %
Track quality 100.0 %
Test CRC 0B234FE0
Copy CRC 0B234FE0
Accurately ripped (confidence 2) [37C1117F]
Copy OK
Track 7
Filename I:\CK\J.S. Bach (played by John Butt - Organ of Trinity College, Cambridge) - 2000 - Four Toccatas & Fuges, Schubler Chorales\07 - Wer nur den lieben Gott labbt walten (BWV 647).wav
Pre-gap length 0:00:03.45
Peak level 20.8 %
Track quality 100.0 %
Test CRC 492E0A5B
Copy CRC 492E0A5B
Accurately ripped (confidence 2) [358E4E38]
Copy OK
Track 8
Filename I:\CK\J.S. Bach (played by John Butt - Organ of Trinity College, Cambridge) - 2000 - Four Toccatas & Fuges, Schubler Chorales\08 - Meine Seele erhebet den Herren (BWV 648).wav
Pre-gap length 0:00:03.62
Peak level 33.4 %
Track quality 100.0 %
Test CRC D9439179
Copy CRC D9439179
Accurately ripped (confidence 2) [D01152F7]
Copy OK
Track 9
Filename I:\CK\J.S. Bach (played by John Butt - Organ of Trinity College, Cambridge) - 2000 - Four Toccatas & Fuges, Schubler Chorales\09 - Toccata and Fugue in D minor 'Dorian' (BWV 538) - Toccata.wav
Pre-gap length 0:00:03.70
Peak level 43.1 %
Track quality 100.0 %
Test CRC 4058576F
Copy CRC 4058576F
Accurately ripped (confidence 2) [B36A8444]
Copy OK
Track 10
Filename I:\CK\J.S. Bach (played by John Butt - Organ of Trinity College, Cambridge) - 2000 - Four Toccatas & Fuges, Schubler Chorales\10 - Toccata and Fugue in D minor 'Dorian' (BWV 538) - Fugue.wav
Peak level 58.4 %
Track quality 99.9 %
Test CRC 36F47EC6
Copy CRC 36F47EC6
Accurately ripped (confidence 2) [E4886BD9]
Copy OK
Track 11
Filename I:\CK\J.S. Bach (played by John Butt - Organ of Trinity College, Cambridge) - 2000 - Four Toccatas & Fuges, Schubler Chorales\11 - Ach bleib' bei uns, Herr Jesu Christ (BWV 649).wav
Pre-gap length 0:00:03.18
Peak level 25.1 %
Track quality 99.9 %
Test CRC D117E189
Copy CRC D117E189
Accurately ripped (confidence 2) [057D1396]
Copy OK
Track 12
Filename I:\CK\J.S. Bach (played by John Butt - Organ of Trinity College, Cambridge) - 2000 - Four Toccatas & Fuges, Schubler Chorales\12 - Kommst du nun, Jesu von Himmel herunter (BWV 650).wav
Pre-gap length 0:00:03.33
Peak level 22.1 %
Track quality 100.0 %
Test CRC AC8681EF
Copy CRC AC8681EF
Accurately ripped (confidence 2) [2D808833]
Copy OK
Track 13
Filename I:\CK\J.S. Bach (played by John Butt - Organ of Trinity College, Cambridge) - 2000 - Four Toccatas & Fuges, Schubler Chorales\13 - Toccata and Fugue in F major (BWV 540) - Toccata.wav
Pre-gap length 0:00:04.00
Peak level 70.9 %
Track quality 100.0 %
Test CRC A0FE171E
Copy CRC A0FE171E
Accurately ripped (confidence 2) [7B1D96DD]
Copy OK
Track 14
Filename I:\CK\J.S. Bach (played by John Butt - Organ of Trinity College, Cambridge) - 2000 - Four Toccatas & Fuges, Schubler Chorales\14 - Toccata and Fugue in F major (BWV 540) - Fugue.wav
Peak level 58.4 %
Track quality 100.0 %
Test CRC 7A4EE597
Copy CRC 7A4EE597
Accurately ripped (confidence 2) [8FCBC11D]
Copy OK
All tracks accurately ripped
No errors occurred
End of status report

Содержание индексной карты (.CUE)

REM DATE 2000
REM DISCID C50FB50E
REM COMMENT "ExactAudioCopy v0.99pb4"
PERFORMER "John Butt"
TITLE "Organ Toccatas, Schübler Chorales"
FILE "01. Toccata, Adagio and Fugue in C major, BWV 564 · Toccata.wav" WAVE
TRACK 01 AUDIO
TITLE "Toccata, Adagio and Fugue in C major, BWV 564 · Toccata"
PERFORMER "John Butt"
FLAGS DCP
INDEX 01 00:00:00
TRACK 02 AUDIO
TITLE "Toccata, Adagio and Fugue in C major, BWV 564 · Adagio"
PERFORMER "John Butt"
FLAGS DCP
INDEX 00 05:16:50
FILE "02. Toccata, Adagio and Fugue in C major, BWV 564 · Adagio.wav" WAVE
INDEX 01 00:00:00
TRACK 03 AUDIO
TITLE "Toccata, Adagio and Fugue in C major, BWV 564 · Fugue"
PERFORMER "John Butt"
FLAGS DCP
INDEX 00 04:10:63
FILE "03. Toccata, Adagio and Fugue in C major, BWV 564 · Fugue.wav" WAVE
INDEX 01 00:00:00
TRACK 04 AUDIO
TITLE "Wachet auf, ruft uns die Stimme, BWV 645"
PERFORMER "John Butt"
FLAGS DCP
INDEX 00 04:28:70
FILE "04. Wachet auf, ruft uns die Stimme, BWV 645.wav" WAVE
INDEX 01 00:00:00
TRACK 05 AUDIO
TITLE "Wo soll ich fliehen hin, BWV 646"
PERFORMER "John Butt"
FLAGS DCP
INDEX 00 04:04:60
FILE "05. Wo soll ich fliehen hin, BWV 646.wav" WAVE
INDEX 01 00:00:00
TRACK 06 AUDIO
TITLE "Tocatta and Fugue in D minor, BWV 565"
PERFORMER "John Butt"
FLAGS DCP
INDEX 00 01:47:27
FILE "06. Tocatta and Fugue in D minor, BWV 565.wav" WAVE
INDEX 01 00:00:00
TRACK 07 AUDIO
TITLE "Wer nur den lieben Gott läßt walten, BWV 647"
PERFORMER "John Butt"
FLAGS DCP
INDEX 00 08:15:02
FILE "07. Wer nur den lieben Gott läßt walten, BWV 647.wav" WAVE
INDEX 01 00:00:00
TRACK 08 AUDIO
TITLE "Meine Seele erhebet den Herren, BWV 648"
PERFORMER "John Butt"
FLAGS DCP
INDEX 00 02:58:73
FILE "08. Meine Seele erhebet den Herren, BWV 648.wav" WAVE
INDEX 01 00:00:00
TRACK 09 AUDIO
TITLE "Toccata and Fugue in D minor “Dorian”, BWV 538 · Toccata"
PERFORMER "John Butt"
FLAGS DCP
INDEX 00 02:32:50
FILE "09. Toccata and Fugue in D minor “Dorian”, BWV 538 · Toccata.wav" WAVE
INDEX 01 00:00:00
FILE "10. Toccata and Fugue in D minor “Dorian”, BWV 538 · Fugue.wav" WAVE
TRACK 10 AUDIO
TITLE "Toccata and Fugue in D minor “Dorian”, BWV 538 · Fugue"
PERFORMER "John Butt"
FLAGS DCP
INDEX 01 00:00:00
TRACK 11 AUDIO
TITLE "Ach bleib’ bei uns, Herr Jesu Christ, BWV 649"
PERFORMER "John Butt"
FLAGS DCP
INDEX 00 07:36:27
FILE "11. Ach bleib’ bei uns, Herr Jesu Christ, BWV 649.wav" WAVE
INDEX 01 00:00:00
TRACK 12 AUDIO
TITLE "Kommst du nun, Jesu, von Himmel herunter, BWV 650"
PERFORMER "John Butt"
FLAGS DCP
INDEX 00 02:46:42
FILE "12. Kommst du nun, Jesu, von Himmel herunter, BWV 650.wav" WAVE
INDEX 01 00:00:00
TRACK 13 AUDIO
TITLE "Toccata and Fugue in F major, BWV 540 · Toccata"
PERFORMER "John Butt"
FLAGS DCP
INDEX 00 03:30:42
FILE "13. Toccata and Fugue in F major, BWV 540 · Toccata.wav" WAVE
INDEX 01 00:00:00
FILE "14. Toccata and Fugue in F major, BWV 540 · Fugue.wav" WAVE
TRACK 14 AUDIO
TITLE "Toccata and Fugue in F major, BWV 540 · Fugue"
PERFORMER "John Butt"
FLAGS DCP
INDEX 01 00:00:00



Показать сообщения:    

Текущее время: 10-Дек 21:33

Часовой пояс: UTC + 3


Вы не можете начинать темы
Вы не можете отвечать на сообщения
Вы не можете редактировать свои сообщения
Вы не можете удалять свои сообщения
Вы не можете голосовать в опросах
Вы не можете прикреплять файлы к сообщениям
Вы не можете скачивать файлы