(Classical) Johannes Brahms - Alt-Rhapsodie; Chorwerke - Nathalie Stutzmann; Symphonieorchester und Chor des Bayerischen Rundfunks, Colin Davis - 2014, FLAC (image+.cue) lossless


Статистика раздачи [Обновить пиров]
Размер:  233 MB   |    Зарегистрирован:  8 месяцев 20 дней   |    Скачан:  1 раз

Полного источника не было: 1 месяц 16 дней

 
   
 
 
 

[Цитировать]

Johannes Brahms - Alt-Rhapsodie; Chorwerke - Nathalie Stutzmann; Symphonieorchester und Chor des Bayerischen Rundfunks, Colin Davis
Жанр: Classical
Год издания диска: 2014
Издатель (лейбл): Newton Classics
Дата записи: 1992
Аудиокодек: FLAC
Тип рипа: image+.cue
Битрейт аудио: lossless
Продолжительность: 66:29
Источник: собственный рип
Наличие сканов в содержимом раздачи: да
Треклист:
Johannes Brahms
[1] Schicksalslied, Op.54
[2] Rhapsodie für Altstimme, Männerchor und Orchester, Op.53
Nathalie Stutzmann contralto
[3] Nänie, Op.82
[4] Gesang der Parzen, Op.89
[5]-[11] Marienlieder, Op.22
Исполнители:
Nathalie Stutzmann contralto (Rhapsodie)
Symphonieorchester und Chor des Bayerischen Rundfunks
Colin Davis

Лог создания рипа

Exact Audio Copy V1.0 beta 3 from 29. August 2011
EAC extraction logfile from 15. June 2015, 23:21
Bavarian Radio Symphony Orchestra and Chorus, Colin Davis / Brahms - Works for Chorus; Alto Rhapsody
Used drive : HL-DT-STDVDRAM GU70N Adapter: 0 ID: 0
Read mode : Secure
Utilize accurate stream : Yes
Defeat audio cache : Yes
Make use of C2 pointers : No
Read offset correction : 48
Overread into Lead-In and Lead-Out : No
Fill up missing offset samples with silence : Yes
Delete leading and trailing silent blocks : No
Null samples used in CRC calculations : Yes
Used interface : Native Win32 interface for Win NT & 2000
Used output format : User Defined Encoder
Selected bitrate : 128 kBit/s
Quality : High
Add ID3 tag : No
Command line compressor : C:\Program Files (x86)\Exact Audio Copy\Flac\flac.exe
Additional command line options : -V -8 -T "Date=%year%" -T "Genre=%genre%" %source%
TOC of the extracted CD
Track | Start | Length | Start sector | End sector
---------------------------------------------------------
1 | 0:00.32 | 16:35.33 | 32 | 74689
2 | 16:35.65 | 13:09.12 | 74690 | 133876
3 | 29:45.02 | 11:39.63 | 133877 | 186364
4 | 41:24.65 | 10:42.07 | 186365 | 234521
5 | 52:06.72 | 3:35.13 | 234522 | 250659
6 | 55:42.10 | 1:51.42 | 250660 | 259026
7 | 57:33.52 | 1:39.68 | 259027 | 266519
8 | 59:13.45 | 1:51.17 | 266520 | 274861
9 | 61:04.62 | 2:27.53 | 274862 | 285939
10 | 63:32.40 | 1:39.00 | 285940 | 293364
11 | 65:11.40 | 2:16.32 | 293365 | 303596
Range status and errors
Selected range
Filename C:\temp\Brahms - Works for Chorus; Alto Rhapsody\Brahms - Works for Chorus; Alto Rhapsody.wav
Peak level 95.3 %
Extraction speed 2.2 X
Range quality 100.0 %
Test CRC BA4A1E70
Copy CRC BA4A1E70
Copy OK
No errors occurred
AccurateRip summary
Track 1 cannot be verified as accurate (confidence 6) [C476E87E], AccurateRip returned [36411C04] (AR v2)
Track 2 cannot be verified as accurate (confidence 6) [B765803F], AccurateRip returned [B4B1432A] (AR v2)
Track 3 cannot be verified as accurate (confidence 6) [2E41897F], AccurateRip returned [15CB8BBE] (AR v2)
Track 4 cannot be verified as accurate (confidence 6) [D3A682C5], AccurateRip returned [14D375C4] (AR v2)
Track 5 cannot be verified as accurate (confidence 6) [77ABF553], AccurateRip returned [9413DF73] (AR v2)
Track 6 cannot be verified as accurate (confidence 6) [AC1B5C3B], AccurateRip returned [4DEC30A7] (AR v2)
Track 7 cannot be verified as accurate (confidence 6) [1704BBDB], AccurateRip returned [D3C4E1C1] (AR v2)
Track 8 cannot be verified as accurate (confidence 6) [A63569D5], AccurateRip returned [A7519FAD] (AR v2)
Track 9 cannot be verified as accurate (confidence 6) [DF0E91BD], AccurateRip returned [9809DE1C] (AR v2)
Track 10 cannot be verified as accurate (confidence 6) [CFCD1142], AccurateRip returned [887301F1] (AR v2)
Track 11 cannot be verified as accurate (confidence 6) [CD370DA0], AccurateRip returned [3C43D708] (AR v2)
No tracks could be verified as accurate
You may have a different pressing from the one(s) in the database
End of status report
==== Log checksum 69491020F37FAB0B52CF8E5199E08195DDD1A541207364778C694B7BB6766ACE ====
[teatrix.ru].t23244.torrent 
Торрент: Зарегистрирован [ 2016-03-21 00:30 ] · 760172861E527ADA2939339A8A0D599E46939C73

Скачать .torrent

Скачать

38 KB

Статус: проверено
Скачан: 1 раз
Размер: 233 MB
terms.php



Быстрый ответ

Имя:

      
Для отправки сообщений необходимо включить JavaScript
Показать сообщения:    

Текущее время: 10-Дек 17:39

Часовой пояс: UTC + 3


Вы можете начинать темы
Вы можете отвечать на сообщения
Вы не можете редактировать свои сообщения
Вы не можете удалять свои сообщения
Вы не можете голосовать в опросах
Вы не можете прикреплять файлы к сообщениям
Вы можете скачивать файлы