(Classical) Johann Sebastian Bach · Easter & Ascension Oratorios (Retrospect Ensemble, Matthew Halls) · 2011, FLAC (tracks+.cue) lossless


Статистика раздачи [Обновить пиров]
Размер:  296 MB   |    Зарегистрирован:  8 месяцев 20 дней   |    Скачан:  0 раз

Полного источника не было: Никогда

 
   
 
 
 

[Цитировать]

Johann Sebastian Bach
Easter & Ascension Oratorios

Жанр: classical
Страна-производитель диска:
Год издания диска: 2011
Издатель: Linn Records
Номер по каталогу: BKD 373
Дата записи: 22–25 февраля 2010 (St Jude’s Church, London, UK)
Аудиокодек: FLAC
Тип рипа: tracks+.cue
Битрейт аудио: lossless
Продолжительность: 01:10:24
Источник: what.cd
Буклет в содержимом раздачи есть
Исполнители: Retrospect Ensemble, Matthew Halls

Треклист

Easter Oratorio, BWV 249
01. Sinfonia (3:53)
02. Adagio (3:39)
03. Chorus & Duetto · Komm, eilet und laufet (4:41)
04. Recitativo · O kalter Männer Sinn (0:52)
05. Aria · Seele, deine Spezereien (10:49)
06. Recitativo · Hier ist die Gruft (0:37)
07. Aria · Sanfte soll mein Todeskummer (7:15)
08. Recitativo · Indessen seufzen wir (0:51)
09. Aria · Saget, saget mein geschwinde (5:40)
10. Recitativo · Wir sind erfreuet (0:33)
11. Chorus · Preis und Dank (2:27)
Ascension Oratorio, BWV 11
12. Chorus · Lobet Gott in seinen Reichen (4:31)
13. Evangelist · Der Herr Jesus hub seine Hände auf (0:26)
14. Recitativo · Ach, Jesu, ist dein Abschied schon so nah? (1:07)
15. Aria · Ach, bleibe doch, mein liebstes Leben (8:12)
16. Evangelist · Und ward aufgehoben zusehends (0:28)
17. Chorale · Nun lieget alles unter dir (1:15)
18. Evangelist · Und da sie ihm nachsahen gen Himmel fahren (0:56)
19. Recitativo · Ach ja! So komme bald zurück (0:34)
20. Evangelist · Sie aber beteten ihn an (0:39)
21. Aria · Jesu, deine Gnadenblicke (6:56)
22. Chorale · Wenn soll es doch geschehen (4:01)

Лог создания рипа

Exact Audio Copy V1.0 beta 2 from 29. April 2011
EAC extraction logfile from 28. January 2012, 22:48
Johann Sebastian Bach / Easter & Ascension Oratorios
Used drive : TSSTcorpCDDVDW TS-L632H Adapter: 1 ID: 0
Read mode : Secure
Utilize accurate stream : Yes
Defeat audio cache : Yes
Make use of C2 pointers : No
Read offset correction : 6
Overread into Lead-In and Lead-Out : No
Fill up missing offset samples with silence : Yes
Delete leading and trailing silent blocks : No
Null samples used in CRC calculations : Yes
Used interface : Installed external ASPI interface
Gap handling : Appended to previous track
Used output format : User Defined Encoder
Selected bitrate : 128 kBit/s
Quality : High
Add ID3 tag : No
Command line compressor : C:\Program Files\Exact Audio Copy\Flac\flac.exe
Additional command line options : -8 -V -T "ARTIST=%artist%" -T "TITLE=%title%" -T "ALBUM=%albumtitle%" -T "DATE=%year%" -T "TRACKNUMBER=%tracknr%" -T "GENRE=%genre%" -T "PERFORMER=%albuminterpret%" -T "COMPOSER=%composer%" %haslyrics%--tag-from-file=LYRICS
TOC of the extracted CD
Track | Start | Length | Start sector | End sector
---------------------------------------------------------
1 | 0:00.00 | 3:52.45 | 0 | 17444
2 | 3:52.45 | 3:39.30 | 17445 | 33899
3 | 7:32.00 | 4:41.07 | 33900 | 54981
4 | 12:13.07 | 0:52.32 | 54982 | 58913
5 | 13:05.39 | 10:49.26 | 58914 | 107614
6 | 23:54.65 | 0:37.25 | 107615 | 110414
7 | 24:32.15 | 7:15.30 | 110415 | 143069
8 | 31:47.45 | 0:50.48 | 143070 | 146867
9 | 32:38.18 | 5:40.15 | 146868 | 172382
10 | 38:18.33 | 0:33.28 | 172383 | 174885
11 | 38:51.61 | 2:27.06 | 174886 | 185916
12 | 41:18.67 | 4:30.62 | 185917 | 206228
13 | 45:49.54 | 0:26.07 | 206229 | 208185
14 | 46:15.61 | 1:07.28 | 208186 | 213238
15 | 47:23.14 | 8:12.01 | 213239 | 250139
16 | 55:35.15 | 0:27.72 | 250140 | 252236
17 | 56:03.12 | 1:15.03 | 252237 | 257864
18 | 57:18.15 | 0:55.53 | 257865 | 262042
19 | 58:13.68 | 0:33.45 | 262043 | 264562
20 | 58:47.38 | 0:38.64 | 264563 | 267476
21 | 59:26.27 | 6:56.18 | 267477 | 298694
22 | 66:22.45 | 4:01.36 | 298695 | 316805
Track 1
Filename D:\Johann Sebastian Bach - Easter & Ascension Oratorios\01 - Easter Oratorio, BWV 249- Sinfonia.wav
Pre-gap length 0:00:02.00
Peak level 78.0 %
Extraction speed 2.7 X
Track quality 100.0 %
Test CRC 159DD46F
Copy CRC 159DD46F
Accurately ripped (confidence 3) [0F96DC58] (AR v2)
Copy OK
Track 2
Filename D:\Johann Sebastian Bach - Easter & Ascension Oratorios\02 - Easter Oratorio, BWV 249- Adagio.wav
Peak level 45.0 %
Extraction speed 2.9 X
Track quality 100.0 %
Test CRC DB8BAEE8
Copy CRC DB8BAEE8
Accurately ripped (confidence 3) [0D3D7FC2] (AR v2)
Copy OK
Track 3
Filename D:\Johann Sebastian Bach - Easter & Ascension Oratorios\03 - Easter Oratorio, BWV 249- Chorus & Duetto - Komm, eilet und laufet.wav
Peak level 98.7 %
Extraction speed 3.3 X
Track quality 100.0 %
Test CRC 4BADDCE1
Copy CRC 4BADDCE1
Accurately ripped (confidence 3) [B99C00B9] (AR v2)
Copy OK
Track 4
Filename D:\Johann Sebastian Bach - Easter & Ascension Oratorios\04 - Easter Oratorio, BWV 249- Recitativo - O kalter Männer Sinn.wav
Peak level 44.5 %
Extraction speed 1.3 X
Track quality 99.7 %
Test CRC CAA18B83
Copy CRC CAA18B83
Accurately ripped (confidence 3) [F93407BA] (AR v2)
Copy OK
Track 5
Filename D:\Johann Sebastian Bach - Easter & Ascension Oratorios\05 - Easter Oratorio, BWV 249- Aria - Seele, deine Spezereien.wav
Peak level 55.0 %
Extraction speed 4.1 X
Track quality 100.0 %
Test CRC 31F60E64
Copy CRC 31F60E64
Accurately ripped (confidence 3) [A2C9F792] (AR v2)
Copy OK
Track 6
Filename D:\Johann Sebastian Bach - Easter & Ascension Oratorios\06 - Easter Oratorio, BWV 249- Recitativo - Hier ist die Gruft.wav
Peak level 26.8 %
Extraction speed 1.9 X
Track quality 100.0 %
Test CRC 97A32F6C
Copy CRC 97A32F6C
Accurately ripped (confidence 3) [9285153F] (AR v2)
Copy OK
Track 7
Filename D:\Johann Sebastian Bach - Easter & Ascension Oratorios\07 - Easter Oratorio, BWV 249- Aria - Sanfte soll mein Todeskummer.wav
Peak level 40.7 %
Extraction speed 4.4 X
Track quality 100.0 %
Test CRC 3A6C3542
Copy CRC 3A6C3542
Accurately ripped (confidence 3) [EAB765DC] (AR v2)
Copy OK
Track 8
Filename D:\Johann Sebastian Bach - Easter & Ascension Oratorios\08 - Easter Oratorio, BWV 249- Recitativo - Indessen seufzen wir.wav
Peak level 51.2 %
Extraction speed 2.4 X
Track quality 100.0 %
Test CRC ACB20F17
Copy CRC ACB20F17
Accurately ripped (confidence 3) [7B018A05] (AR v2)
Copy OK
Track 9
Filename D:\Johann Sebastian Bach - Easter & Ascension Oratorios\09 - Easter Oratorio, BWV 249- Aria - Saget, saget mein geschwinde.wav
Peak level 45.3 %
Extraction speed 4.5 X
Track quality 100.0 %
Test CRC AD03750F
Copy CRC AD03750F
Accurately ripped (confidence 3) [3133645E] (AR v2)
Copy OK
Track 10
Filename D:\Johann Sebastian Bach - Easter & Ascension Oratorios\10 - Easter Oratorio, BWV 249- Recitativo - Wir sind erfreuet.wav
Peak level 41.3 %
Extraction speed 1.9 X
Track quality 100.0 %
Test CRC FAC2BD28
Copy CRC FAC2BD28
Accurately ripped (confidence 3) [E17E822E] (AR v2)
Copy OK
Track 11
Filename D:\Johann Sebastian Bach - Easter & Ascension Oratorios\11 - Easter Oratorio, BWV 249- Chorus - Preis und Dank.wav
Peak level 93.9 %
Extraction speed 2.9 X
Track quality 99.9 %
Test CRC 355AB6E6
Copy CRC 355AB6E6
Accurately ripped (confidence 3) [941084C6] (AR v2)
Copy OK
Track 12
Filename D:\Johann Sebastian Bach - Easter & Ascension Oratorios\12 - Lobet Gott in seinen Reichen, BWV 11 'Ascension Oratorio'- Chorus - Lobet Gott in seinen Reichen.wav
Pre-gap length 0:00:10.26
Peak level 96.9 %
Extraction speed 4.7 X
Track quality 100.0 %
Test CRC F6EFB8FE
Copy CRC F6EFB8FE
Accurately ripped (confidence 3) [B89334D6] (AR v2)
Copy OK
Track 13
Filename D:\Johann Sebastian Bach - Easter & Ascension Oratorios\13 - Lobet Gott in seinen Reichen, BWV 11 'Ascension Oratorio'- Evangelist - Der Herr Jesus hub seine Hände auf.wav
Peak level 28.4 %
Extraction speed 1.7 X
Track quality 100.0 %
Test CRC 9DA5D28E
Copy CRC 9DA5D28E
Accurately ripped (confidence 3) [9038D210] (AR v2)
Copy OK
Track 14
Filename D:\Johann Sebastian Bach - Easter & Ascension Oratorios\14 - Lobet Gott in seinen Reichen, BWV 11 'Ascension Oratorio'- Recitativo - Ach, Jesu, ist dein Abschied schon so nah.wav
Peak level 32.4 %
Extraction speed 1.9 X
Track quality 99.8 %
Test CRC E3CA6BE7
Copy CRC E3CA6BE7
Accurately ripped (confidence 3) [15C3DACB] (AR v2)
Copy OK
Track 15
Filename D:\Johann Sebastian Bach - Easter & Ascension Oratorios\15 - Lobet Gott in seinen Reichen, BWV 11 'Ascension Oratorio'- Aria - Ach, bleibe doch, mein liebstes Leben.wav
Peak level 52.8 %
Extraction speed 4.7 X
Track quality 99.9 %
Test CRC DFEDC130
Copy CRC DFEDC130
Accurately ripped (confidence 3) [ED6E977A] (AR v2)
Copy OK
Track 16
Filename D:\Johann Sebastian Bach - Easter & Ascension Oratorios\16 - Lobet Gott in seinen Reichen, BWV 11 'Ascension Oratorio'- Evangelist - Und ward aufgehoben zusehends.wav
Peak level 36.1 %
Extraction speed 1.8 X
Track quality 100.0 %
Test CRC 0E35CE21
Copy CRC 0E35CE21
Accurately ripped (confidence 3) [1654EC78] (AR v2)
Copy OK
Track 17
Filename D:\Johann Sebastian Bach - Easter & Ascension Oratorios\17 - Lobet Gott in seinen Reichen, BWV 11 'Ascension Oratorio'- Chorale - Nun lieget alles unter dir.wav
Peak level 71.7 %
Extraction speed 2.1 X
Track quality 99.8 %
Test CRC 1A3A2502
Copy CRC 1A3A2502
Accurately ripped (confidence 3) [FC6986A3] (AR v2)
Copy OK
Track 18
Filename D:\Johann Sebastian Bach - Easter & Ascension Oratorios\18 - Lobet Gott in seinen Reichen, BWV 11 'Ascension Oratorio'- Evangelist - Und da sie ihm nachsahen gen Himmel fahren.wav
Peak level 37.4 %
Extraction speed 2.8 X
Track quality 100.0 %
Test CRC 4C939E88
Copy CRC 4C939E88
Accurately ripped (confidence 3) [B329FA6F] (AR v2)
Copy OK
Track 19
Filename D:\Johann Sebastian Bach - Easter & Ascension Oratorios\19 - Lobet Gott in seinen Reichen, BWV 11 'Ascension Oratorio'- Recitativo - Ach ja! So komme bald zurück.wav
Peak level 37.3 %
Extraction speed 2.1 X
Track quality 100.0 %
Test CRC 982E0D94
Copy CRC 982E0D94
Accurately ripped (confidence 3) [F8BB389B] (AR v2)
Copy OK
Track 20
Filename D:\Johann Sebastian Bach - Easter & Ascension Oratorios\20 - Lobet Gott in seinen Reichen, BWV 11 'Ascension Oratorio'- Evangelist - Sie aber beteten ihn an.wav
Peak level 23.8 %
Extraction speed 1.3 X
Track quality 99.7 %
Test CRC BE94C189
Copy CRC BE94C189
Accurately ripped (confidence 3) [A8232757] (AR v2)
Copy OK
Track 21
Filename D:\Johann Sebastian Bach - Easter & Ascension Oratorios\21 - Lobet Gott in seinen Reichen, BWV 11 'Ascension Oratorio'- Aria - Jesu, deine Gnadenblicke.wav
Peak level 68.2 %
Extraction speed 5.7 X
Track quality 100.0 %
Test CRC 173B05D0
Copy CRC 173B05D0
Accurately ripped (confidence 3) [6AD0112B] (AR v2)
Copy OK
Track 22
Filename D:\Johann Sebastian Bach - Easter & Ascension Oratorios\22 - Lobet Gott in seinen Reichen, BWV 11 'Ascension Oratorio'- Chorale - Wenn soll es doch geschehen.wav
Peak level 86.8 %
Extraction speed 5.3 X
Track quality 100.0 %
Test CRC 89456712
Copy CRC 89456712
Accurately ripped (confidence 3) [04AFC651] (AR v2)
Copy OK
All tracks accurately ripped
No errors occurred
End of status report
==== Log checksum F2332954582B05CCF2971AF97FFF687A6D53D2D80105D0B44F967587A8205884 ====

Содержание индексной карты (.CUE)

REM DATE 2011
REM DISCID 58108016
REM COMMENT "ExactAudioCopy v1.0b2"
PERFORMER "Retrospect Ensemble, Matthew Halls"
TITLE "Easter & Ascension Oratorios"
FILE "01. Easter Oratorio, BWV 249 · Sinfonia.wav" WAVE
TRACK 01 AUDIO
TITLE "Sinfonia"
PERFORMER "Retrospect Ensemble, Matthew Halls"
INDEX 01 00:00:00
FILE "02. Easter Oratorio, BWV 249 · Adagio.wav" WAVE
TRACK 02 AUDIO
TITLE "Adagio"
PERFORMER "Retrospect Ensemble, Matthew Halls"
INDEX 01 00:00:00
FILE "03. Easter Oratorio, BWV 249 · Chorus & Duetto · Komm, eilet und laufet.wav" WAVE
TRACK 03 AUDIO
TITLE "Chorus & Duetto · Komm, eilet und laufet"
PERFORMER "Retrospect Ensemble, Matthew Halls"
INDEX 01 00:00:00
FILE "04. Easter Oratorio, BWV 249 · Recitativo · O kalter Männer Sinn.wav" WAVE
TRACK 04 AUDIO
TITLE "Recitativo · O kalter Männer Sinn"
PERFORMER "Retrospect Ensemble, Matthew Halls"
INDEX 01 00:00:00
FILE "05. Easter Oratorio, BWV 249 · Aria · Seele, deine Spezereien.wav" WAVE
TRACK 05 AUDIO
TITLE "Aria · Seele, deine Spezereien"
PERFORMER "Retrospect Ensemble, Matthew Halls"
INDEX 01 00:00:00
FILE "06. Easter Oratorio, BWV 249 · Recitativo · Hier ist die Gruft.wav" WAVE
TRACK 06 AUDIO
TITLE "Recitativo · Hier ist die Gruft"
PERFORMER "Retrospect Ensemble, Matthew Halls"
INDEX 01 00:00:00
FILE "07. Easter Oratorio, BWV 249 · Aria · Sanfte soll mein Todeskummer.wav" WAVE
TRACK 07 AUDIO
TITLE "Aria · Sanfte soll mein Todeskummer"
PERFORMER "Retrospect Ensemble, Matthew Halls"
INDEX 01 00:00:00
FILE "08. Easter Oratorio, BWV 249 · Recitativo · Indessen seufzen wir.wav" WAVE
TRACK 08 AUDIO
TITLE "Recitativo · Indessen seufzen wir"
PERFORMER "Retrospect Ensemble, Matthew Halls"
INDEX 01 00:00:00
FILE "09. Easter Oratorio, BWV 249 · Aria · Saget, saget mein geschwinde.wav" WAVE
TRACK 09 AUDIO
TITLE "Aria · Saget, saget mein geschwinde"
PERFORMER "Retrospect Ensemble, Matthew Halls"
INDEX 01 00:00:00
FILE "10. Easter Oratorio, BWV 249 · Recitativo · Wir sind erfreuet.wav" WAVE
TRACK 10 AUDIO
TITLE "Recitativo · Wir sind erfreuet"
PERFORMER "Retrospect Ensemble, Matthew Halls"
INDEX 01 00:00:00
FILE "11. Easter Oratorio, BWV 249 · Chorus · Preis und Dank.wav" WAVE
TRACK 11 AUDIO
TITLE "Chorus · Preis und Dank"
PERFORMER "Retrospect Ensemble, Matthew Halls"
INDEX 01 00:00:00
TRACK 12 AUDIO
TITLE "Chorus · Lobet Gott in seinen Reichen"
PERFORMER "Retrospect Ensemble, Matthew Halls"
INDEX 00 02:16:61
FILE "12. Ascension Oratorio, BWV 11 · Chorus · Lobet Gott in seinen Reichen.wav" WAVE
INDEX 01 00:00:00
FILE "13. Ascension Oratorio, BWV 11 · Evangelist · Der Herr Jesus hub seine Hände auf.wav" WAVE
TRACK 13 AUDIO
TITLE "Evangelist · Der Herr Jesus hub seine Hände auf"
PERFORMER "Retrospect Ensemble, Matthew Halls"
INDEX 01 00:00:00
FILE "14. Ascension Oratorio, BWV 11 · Recitativo · Ach, Jesu, ist dein Abschied schon so nah_.wav" WAVE
TRACK 14 AUDIO
TITLE "Recitativo · Ach, Jesu, ist dein Abschied schon so nah?"
PERFORMER "Retrospect Ensemble, Matthew Halls"
INDEX 01 00:00:00
FILE "15. Ascension Oratorio, BWV 11 · Aria · Ach, bleibe doch, mein liebstes Leben.wav" WAVE
TRACK 15 AUDIO
TITLE "Aria · Ach, bleibe doch, mein liebstes Leben"
PERFORMER "Retrospect Ensemble, Matthew Halls"
INDEX 01 00:00:00
FILE "16. Ascension Oratorio, BWV 11 · Evangelist · Und ward aufgehoben zusehends.wav" WAVE
TRACK 16 AUDIO
TITLE "Evangelist · Und ward aufgehoben zusehends"
PERFORMER "Retrospect Ensemble, Matthew Halls"
INDEX 01 00:00:00
FILE "17. Ascension Oratorio, BWV 11 · Chorale · Nun lieget alles unter dir.wav" WAVE
TRACK 17 AUDIO
TITLE "Chorale · Nun lieget alles unter dir"
PERFORMER "Retrospect Ensemble, Matthew Halls"
INDEX 01 00:00:00
FILE "18. Ascension Oratorio, BWV 11 · Evangelist · Und da sie ihm nachsahen gen Himmel fahren.wav" WAVE
TRACK 18 AUDIO
TITLE "Evangelist · Und da sie ihm nachsahen gen Himmel fahren"
PERFORMER "Retrospect Ensemble, Matthew Halls"
INDEX 01 00:00:00
FILE "19. Ascension Oratorio, BWV 11 · Recitativo · Ach ja! So komme bald zurück.wav" WAVE
TRACK 19 AUDIO
TITLE "Recitativo · Ach ja! So komme bald zurück"
PERFORMER "Retrospect Ensemble, Matthew Halls"
INDEX 01 00:00:00
FILE "20. Ascension Oratorio, BWV 11 · Evangelist · Sie aber beteten ihn an.wav" WAVE
TRACK 20 AUDIO
TITLE "Evangelist · Sie aber beteten ihn an"
PERFORMER "Retrospect Ensemble, Matthew Halls"
INDEX 01 00:00:00
FILE "21. Ascension Oratorio, BWV 11 · Aria · Jesu, deine Gnadenblicke.wav" WAVE
TRACK 21 AUDIO
TITLE "Aria · Jesu, deine Gnadenblicke"
PERFORMER "Retrospect Ensemble, Matthew Halls"
INDEX 01 00:00:00
FILE "22. Ascension Oratorio, BWV 11 · Chorale · Wenn soll es doch geschehen.wav" WAVE
TRACK 22 AUDIO
TITLE "Chorale · Wenn soll es doch geschehen"
PERFORMER "Retrospect Ensemble, Matthew Halls"
INDEX 01 00:00:00
[teatrix.ru].t23246.torrent 
Торрент: Зарегистрирован [ 2016-03-21 00:30 ] · FAA3C0129AAD1686C4B1D57150B682C6EEFF60EB

Скачать .torrent

Скачать

15 KB

Статус: проверено
Скачан: 0 раз
Размер: 296 MB
terms.php



Быстрый ответ

Имя:

      
Для отправки сообщений необходимо включить JavaScript
Показать сообщения:    

Текущее время: 10-Дек 23:32

Часовой пояс: UTC + 3


Вы можете начинать темы
Вы можете отвечать на сообщения
Вы не можете редактировать свои сообщения
Вы не можете удалять свои сообщения
Вы не можете голосовать в опросах
Вы не можете прикреплять файлы к сообщениям
Вы можете скачивать файлы