[TR24][OF] Чайковский / Tchaikovsky - Щелкунчик Op. 71 / The Nutcracker Op. 71 & Serenade in C major Op. 48 / Серенада для струнного оркестра Op. 48 - Antal Dorati, Philharmonia Hungarica & London Symphony Orchestra - 1958, 1962 (Classical)


Статистика раздачи [Обновить пиров]
Размер:  3.72 GB   |    Зарегистрирован:  8 месяцев 13 дней   |    Скачан:  1 раз

Полного источника не было: 7 месяцев 9 дней

 
   
 
 
 

[Цитировать]

Пётр Ильич Чайковский
(1840-1893)

Щелкунчик, Op. 71 / Серенада для струнного оркестра, Op. 48
Формат записи/Источник записи: [TR24][OF]
Наличие водяных знаков: Нет
Издание: 478 7940
Год издания/переиздания диска: 1991
Жанр: Classical
Издатель(лейбл): Mercury Living Presence
Продолжительность: 01:49:32
Наличие сканов в содержимом раздачи: artwork
http://www.hdtracks.com/tchaikovsky-the-nutcracker-serenade-for-strings-133402
Контейнер: FLAC (*.flac)
Тип рипа: tracks
Разрядность: 24/176,4
Формат: WAV (flac.ape.wv)
Количество каналов: 2.0

Треклист

The Nutcracker, Op.71
3:04 01 Overture
Act 1
3:48 02 No. 1 The Christmas Tree
2:15 03 No. 2 March
2:15 04 No. 3 Galop and Dance of the Parents
5:07 05 No. 4 Dance Scene - The Presents of Drosselmeyer
5:43 06 No. 5 Scene - Grandfather Dance
6:05 07 No. 6 Clara and the Nutcracker
2:49 08 No. 7 The Nutcracker Battles the Army of the Mouse King - He Wins and Is Transformed into Prince Charming
3:33 09 No. 8 In the Christmas Tree
6:27 10 No. 9 Scene and Waltz of the Snowflakes
Act 2
4:11 01 No. 10 The Magic Castle on the Mountain of Sweets
4:34 02 No. 11 Clara and Prince Charming
1:08 03 No. 12a Character Dances: Chocolate (Spanish Dance)
2:44 04 No. 12b Character Dances: Coffee (Arabian Dance)
0:59 05 No. 12c Character Dances: Tea (Chinese Dance)
1:02 06 No. 12d Character Dances: Trepak (Russian Dance)
2:12 07 No. 12e Character Dances: Dance of the Reed Pipes
2:58 08 No. 12f Character Dances: Polchinelle (The Clown)
6:04 09 No. 13 Waltz of the Flowers
4:10 10 No. 14a Pas de deux: Intrada
0:38 11 No. 14b Pas de deux: Variation I (Tarantella)
2:05 12 No. 14c Pas de deux: Variation II (Dance of the Sugar-Plum Fairy)
1:18 13 No. 14d Pas de deux: Coda
3:19 14 No. 15a Final Waltz
1:36 15 No. 15b Apotheosis
Serenade for Strings in C, Op.48
10:49 16 1. Pezzo in forma di sonatina: Andante non troppo - Allegro moderato
3:55 17 2. Walzer: Moderato (Tempo di valse)
8:03 18 3. Elegie: Larghetto elegiaco
7:38 19 4. Finale (Tema russo): Andante

Лог проверки качества disk 1

foobar2000 1.2.6 / Dynamic Range Meter 1.1.1
log date: 2016-03-02 23:46:54
--------------------------------------------------------------------------------
Analyzed: London Symphony Chorus; London Symphony Orchestra; Antal Dorati [Conductor] / Tchaikovsky: The Nutcracker; Serenade for Strings (1)
London Symphony Orchestra; Antal Dorati [Conductor] / Tchaikovsky: The Nutcracker; Serenade for Strings (2-10)
--------------------------------------------------------------------------------
DR Peak RMS Duration Track
--------------------------------------------------------------------------------
DR13 -3.25 dB -21.57 dB 6:27 10-The Nutcracker, Op.71 / Act 1: No. 9 Scene and Waltz of the Snowflakes
DR14 -9.63 dB -29.20 dB 3:04 01-The Nutcracker, Op.71: Overture
DR13 -6.53 dB -26.50 dB 3:48 02-The Nutcracker, Op.71 / Act 1: No. 1 The Christmas Tree
DR14 -7.34 dB -25.67 dB 2:15 03-The Nutcracker, Op.71 / Act 1: No. 2 March
DR12 -7.14 dB -22.68 dB 2:15 04-The Nutcracker, Op.71 / Act 1: No. 3 Galop and Dance of the Parents
DR15 -4.93 dB -26.57 dB 5:07 05-The Nutcracker, Op.71 / Act 1: No. 4 Dance Scene - The Presents of Drosselmeyer
DR13 -6.75 dB -26.85 dB 5:43 06-The Nutcracker, Op.71 / Act 1: No. 5 Scene - Grandfather Dance
DR13 -2.17 dB -21.52 dB 6:05 07-The Nutcracker, Op.71 / Act 1: No. 6 Clara and the Nutcracker
DR11 -2.57 dB -19.68 dB 2:49 08-The Nutcracker, Op.71 / Act 1: No. 7 The Nutcracker Battles the Army of the Mouse King - He Wins and Is Transformed into Prince Charming
DR11 -2.02 dB -17.51 dB 3:33 09-The Nutcracker, Op.71 / Act 1: No. 8 In the Christmas Tree
--------------------------------------------------------------------------------
Number of tracks: 10
Official DR value: DR13
Samplerate: 176400 Hz
Channels: 2
Bits per sample: 24
Bitrate: 4976 kbps
Codec: FLAC
================================================================================

Лог проверки качества disk 2

foobar2000 1.2.6 / Dynamic Range Meter 1.1.1
log date: 2016-03-02 23:49:21
--------------------------------------------------------------------------------
Analyzed: London Symphony Orchestra; Antal Dorati [Conductor] / Tchaikovsky: The Nutcracker; Serenade for Strings (1-15)
Philharmonia Hungarica; Antal Dorati [Conductor] / Tchaikovsky: The Nutcracker; Serenade for Strings (16-19)
--------------------------------------------------------------------------------
DR Peak RMS Duration Track
--------------------------------------------------------------------------------
DR11 -4.24 dB -21.84 dB 4:11 01-The Nutcracker, Op.71 / Act 2: No. 10 The Magic Castle on the Mountain of Sweets
DR11 -3.69 dB -20.33 dB 4:34 02-The Nutcracker, Op.71 / Act 2: No. 11 Clara and Prince Charming
DR10 -4.47 dB -22.07 dB 1:08 03-The Nutcracker, Op.71 / Act 2: No. 12a Character Dances: Chocolate (Spanish Dance)
DR12 -12.71 dB -30.89 dB 2:44 04-The Nutcracker, Op.71 / Act 2: No. 12b Character Dances: Coffee (Arabian Dance)
DR13 -8.81 dB -25.23 dB 0:59 05-The Nutcracker, Op.71 / Act 2: No. 12c Character Dances: Tea (Chinese Dance)
DR10 -2.48 dB -16.81 dB 1:02 06-The Nutcracker, Op.71 / Act 2: No. 12d Character Dances: Trepak (Russian Dance)
DR17 -6.41 dB -30.10 dB 2:12 07-The Nutcracker, Op.71 / Act 2: No. 12e Character Dances: Dance of the Reed Pipes
DR11 -1.90 dB -18.33 dB 2:58 08-The Nutcracker, Op.71 / Act 2: No. 12f Character Dances: Polchinelle (The Clown)
DR12 -1.83 dB -20.10 dB 6:04 09-The Nutcracker, Op.71 / Act 2: No. 13 Waltz of the Flowers
DR10 -2.07 dB -17.38 dB 4:10 10-The Nutcracker, Op.71 / Act 2: No. 14a Pas de deux: Intrada
DR10 -6.98 dB -27.92 dB 0:38 11-The Nutcracker, Op.71 / Act 2: No. 14b Pas de deux: Variation I (Tarantella)
DR15 -12.94 dB -32.95 dB 2:05 12-The Nutcracker, Op.71 / Act 2: No. 14c Pas de deux: Variation II (Dance of the Sugar-Plum Fairy)
DR12 -2.92 dB -19.69 dB 1:18 13-The Nutcracker, Op.71 / Act 2: No. 14d Pas de deux: Coda
DR11 -3.03 dB -18.46 dB 3:19 14-The Nutcracker, Op.71 / Act 2: No. 15a Final Waltz
DR10 -2.24 dB -18.53 dB 1:36 15-The Nutcracker, Op.71 / Act 2: No. 15b Apotheosis
DR13 -5.14 dB -23.76 dB 10:49 16-Serenade for Strings in C, Op.48: 1. Pezzo in forma di sonatina: Andante non troppo - Allegro moderato
DR12 -11.92 dB -27.64 dB 3:55 17-Serenade for Strings in C, Op.48: 2. Walzer: Moderato (Tempo di valse)
DR13 -8.02 dB -26.36 dB 8:03 18-Serenade for Strings in C, Op.48: 3. Elegie: Larghetto elegiaco
DR14 -4.14 dB -22.60 dB 7:38 19-Serenade for Strings in C, Op.48: 4. Finale (Tema russo): Andante - Allegro con spirito
--------------------------------------------------------------------------------
Number of tracks: 19
Official DR value: DR12
Samplerate: 176400 Hz
Channels: 2
Bits per sample: 24
Bitrate: 4780 kbps
Codec: FLAC
================================================================================

Исполнители

London Symphony Orchestra
Philharmonia Hungarica
Antal Dorati
[teatrix.ru].t23247.torrent 
Торрент: Зарегистрирован [ 2016-03-21 00:30 ] · 939779C6E24194063CF252DA365E12B08BB86D65

Скачать .torrent

Скачать

23 KB

Статус: проверено
Скачан: 1 раз
Размер: 3.72 GB
terms.php



Быстрый ответ

Имя:

      
Для отправки сообщений необходимо включить JavaScript
Показать сообщения:    

Текущее время: 03-Дек 09:49

Часовой пояс: UTC + 3


Вы можете начинать темы
Вы можете отвечать на сообщения
Вы не можете редактировать свои сообщения
Вы не можете удалять свои сообщения
Вы не можете голосовать в опросах
Вы не можете прикреплять файлы к сообщениям
Вы можете скачивать файлы