[SACD-R][OF] Glenn Gould, Michael Stegmann - The Glenn Gould Trilogy, A Life - 2007 (Classical; Piano; Biography; Radio play)


Статистика раздачи [Обновить пиров]
Размер:  12.88 GB   |    Зарегистрирован:  8 месяцев 15 дней   |    Скачан:  1 раз

Полного источника не было: 1 месяц 5 дней

 
   
 
 
 

[Цитировать]

The Glenn Gould Trilogy, A Life (Michael Stegmann)- Формат записи/Источник записи: [SACD-R][OF]
Наличие водяных знаков: Нет
Год издания/переиздания диска: 2007
Жанр: Classical; Piano; Biography; Radio play
Издатель(лейбл): Sony BMG Music Entertainment
Продолжительность: 03:48:17
Наличие сканов в содержимом раздачи: Нет-Треклист:
Контейнер: ISO (*.iso)
Тип рипа: image
Разрядность: 64(2,8 MHz/1 Bit)
Формат: DST64
Количество каналов: 5.1, 2.0
ВНИМАНИЕ!
Это не записи Гульда, а радиопьеса о его жизни и творчестве. Автор - Michael Stegmann

Источник (релизер): grillbrill (PS³SACD`s forum)
http://www.elusivedisc.com/Glenn-Gould-Trilogy-A-Life-Hybrid-Multi-Channel-Stereo...nfo/SONSAM13064/

Disc 1: The Idea of Music

1. Prologue
2. Childhood I
3. Puritanism
4. Joseph Hofmann
5. Childhood II
6. Studying The Organ
7. The Art Of Fugue
8. Compositions
9. Studying The Piano
10. Competitions - Sports And Games
11. Concerts
12. ..."When My Love Affair With The Microphone Began"
13. The First Record
14. Goldberg Variations, 1954

Disc 2: The Drop-Out

1. Prologue
2. "The Most Hyped Recording Debut"
3. "...By The Most Hyped Young Performer"
4. Birth Of A Legend
5. Concerts
6. Attitudes
7. Therapies
8. Strategies
9. The Late Beethoven Sonatas
10. "Admit It, Mr. Gould..."
11. A Season On The Road
12. Conductors: Szell, Stokowski, Bernstein And Others
13. Averting
14. A Hysteric Return

Disc 3: The Quiet in the Studio

1. Prologue
2. Splendid Isolation
3. Repertory I - The 20th Century
4. Mozart
5. In The Studio I - Takes And Off-Takes
6. Coalitions
7. At Home With Glenn Gould
8. Glenn Gould Interviews: Glenn Gould About Glenn Gould
9. In The Studio II - Experiments
10. Radio As Music
11. Repertory II - The 19th Century
12. Finale

Об альбоме (сборнике)

The Glenn Gould Trilogy is a unique radio play "composed" by Gould biographer Michael Stegmann and provides a unique insight into the life, music and thoughts of Glenn Gould, the brilliant pianist.
The Glenn Gould Trilogy: A Life is a fascinating journey through the life, the music and the thoughts of Glenn Gould. Radio play, biography, talking book, music and original spoken commentaries are blended on thee discs to create an enthralling portrait, as unusual and gripping as the charismatic and eccentric artist himself.
The 3-disc set is formatted along the lines of Gould's life:
Disc 1 - The Idea of Music - reaches out to Gould's legendary Goldberg Variations debut in 1955.
Disc 2 - The Outdropper - follows the years of his concert activities until his drop-out in 1964.
Disc 3 - The Quiet in the Studio - centers around the years of before his death, when Gould only communicated to his community and the outside world via LP, radio and TV.
AllMusic Review by Mike D. Brownell
A joint venture between Sony Classical and WDR, Michael Stegemann's The Glenn Gould Trilogy: A Life is something truly different and noteworthy. The three-disc set beautifully melds excerpts of Gould's performances, spoken interviews, narrated text, and personal correspondence into a surprisingly coherent whole. Listeners who find it annoying to try to listen to music while someone is talking over it should still give this trilogy a try. It is not entirely about the music being performed, nor is it centered exclusively on the text, dialogue, or narration. Rather, it uses all of these elements brought together from across Gould's career to create a vivid depiction of the personal and professional sides of this historically fascinating and eccentric artist. The only thing that could improve on this collection would be if, instead of being produced on a well-mastered SACD, it were offered on a DVD, incorporating a visual layer of stimulation and interaction. Still, fans of Gould and music history buffs (both amateur and professional) should absolutely treat themselves to this comprehensive guide to his life, presented in a most unique and enjoyable fashion.

DR logs

foobar2000 1.3.8 / Замер динамического диапазона (DR) 1.1.1
Дата отчёта: 2016-03-08 11:24:26
--------------------------------------------------------------------------------
Анализ: ? / The Glenn Gould Trilogy - His Life
--------------------------------------------------------------------------------
DR Пики RMS Продолжительность трека
--------------------------------------------------------------------------------
DR15 -7.88 дБ -34.78 дБ 3:43 01-Prologue
DR15 -7.88 дБ -33.60 дБ 3:54 02-Childhood I
DR15 -7.83 дБ -32.86 дБ 3:34 03-Puritanism
DR13 -8.62 дБ -31.09 дБ 2:13 04-Joseph Hofmann
DR15 -7.89 дБ -32.84 дБ 3:02 05-Childhood II
DR16 -7.73 дБ -30.94 дБ 6:42 06-Studying the organ
DR15 -7.87 дБ -30.54 дБ 7:50 07-The art of fugue
DR17 -7.83 дБ -33.12 дБ 6:08 08-Compositions
DR18 -7.89 дБ -33.71 дБ 8:23 09-Studying the piano
DR15 -7.83 дБ -30.81 дБ 8:11 10-Competitions - sports and games
DR16 -7.89 дБ -31.51 дБ 4:44 11-Concerts
DR14 -9.04 дБ -31.99 дБ 5:28 12-"... when my love affair with the microphone began."
DR18 -7.83 дБ -33.73 дБ 4:31 13-The first record
DR19 -7.49 дБ -34.76 дБ 5:42 14-Goldberg Variations, 1954
--------------------------------------------------------------------------------
Количество треков: 14
Реальные значения DR: DR16
Частота: 2822400 Гц / Частота PCM: 88200 Гц
Каналов: 6
Разрядность: 24
Битрейт: 16934 кбит/с
Кодек: DST64
================================================================================
--------------------------------------------------------------------------------
Анализ: ? / The Glenn Gould Trilogy - His Life
--------------------------------------------------------------------------------
DR Пики RMS Продолжительность трека
--------------------------------------------------------------------------------
DR15 -7.91 дБ -31.90 дБ 3:43 01-Prologue
DR14 -12.57 дБ -31.06 дБ 3:54 02-Childhood I
DR16 -7.81 дБ -30.31 дБ 3:34 03-Puritanism
DR14 -9.18 дБ -28.21 дБ 2:13 04-Joseph Hofmann
DR15 -7.93 дБ -29.15 дБ 3:02 05-Childhood II
DR15 -7.87 дБ -28.64 дБ 6:42 06-Studying the organ
DR15 -9.77 дБ -29.20 дБ 7:50 07-The art of fugue
DR17 -7.28 дБ -30.16 дБ 6:08 08-Compositions
DR17 -8.49 дБ -30.67 дБ 8:23 09-Studying the piano
DR15 -9.44 дБ -29.73 дБ 8:11 10-Competitions - sports and games
DR14 -9.68 дБ -29.44 дБ 4:44 11-Concerts
DR15 -9.34 дБ -28.77 дБ 5:28 12-"... when my love affair with the microphone began."
DR16 -7.86 дБ -31.00 дБ 4:31 13-The first record
DR19 -7.55 дБ -29.76 дБ 5:42 14-Goldberg Variations, 1954
--------------------------------------------------------------------------------
Количество треков: 14
Реальные значения DR: DR16
Частота: 2822400 Гц / Частота PCM: 88200 Гц
Каналов: 2
Разрядность: 24
Битрейт: 5645 кбит/с
Кодек: DST64
================================================================================
foobar2000 1.3.8 / Замер динамического диапазона (DR) 1.1.1
Дата отчёта: 2016-03-08 12:01:45
--------------------------------------------------------------------------------
Анализ: ? / The Glenn Gould Trilogy - His Life
--------------------------------------------------------------------------------
DR Пики RMS Продолжительность трека
--------------------------------------------------------------------------------
DR16 -8.48 дБ -35.60 дБ 3:12 01-Prologue
DR16 -8.67 дБ -34.70 дБ 3:12 02-"The most hyped recording debut..."
DR15 -11.72 дБ -34.63 дБ 3:42 03-"...by the most hyped young performer."
DR16 -10.32 дБ -35.66 дБ 2:27 04-Birth of a legend
DR13 -8.42 дБ -31.81 дБ 2:38 05-Concerts
DR16 -8.45 дБ -33.63 дБ 4:19 06-Attitudes
DR19 -10.91 дБ -38.26 дБ 8:01 07-Therapies
DR16 -8.43 дБ -32.09 дБ 6:51 08-Strategies
DR17 -8.43 дБ -33.13 дБ 6:09 09-The late Beethoven sonatas
DR15 -8.48 дБ -32.53 дБ 6:38 10-"Admit it, Mr. Gould..."
DR16 -8.87 дБ -34.64 дБ 5:40 11-A season on the road
DR16 -9.01 дБ -34.05 дБ 10:31 12-Conductors: Szell, Stokowski, Bernstein and others
DR20 -8.52 дБ -37.82 дБ 5:49 13-Averting
DR20 -9.18 дБ -37.62 дБ 8:18 14-A hysteric return
--------------------------------------------------------------------------------
Количество треков: 14
Реальные значения DR: DR16
Частота: 2822400 Гц / Частота PCM: 88200 Гц
Каналов: 6
Разрядность: 24
Битрейт: 16934 кбит/с
Кодек: DST64
================================================================================
--------------------------------------------------------------------------------
Анализ: ? / The Glenn Gould Trilogy - His Life
--------------------------------------------------------------------------------
DR Пики RMS Продолжительность трека
--------------------------------------------------------------------------------
DR15 -11.72 дБ -31.18 дБ 3:12 01-Prologue
DR17 -8.62 дБ -31.37 дБ 3:12 02-"The most hyped recording debut..."
DR15 -10.25 дБ -28.88 дБ 3:42 03-"...by the most hyped young performer."
DR15 -8.64 дБ -30.94 дБ 2:27 04-Birth of a legend
DR14 -8.62 дБ -28.93 дБ 2:38 05-Concerts
DR15 -8.60 дБ -30.90 дБ 4:19 06-Attitudes
DR17 -9.69 дБ -34.17 дБ 8:01 07-Therapies
DR16 -8.59 дБ -28.75 дБ 6:51 08-Strategies
DR15 -9.57 дБ -30.11 дБ 6:09 09-The late Beethoven sonatas
DR15 -8.52 дБ -28.41 дБ 6:38 10-"Admit it, Mr. Gould..."
DR16 -8.62 дБ -29.16 дБ 5:40 11-A season on the road
DR16 -9.75 дБ -30.13 дБ 10:31 12-Conductors: Szell, Stokowski, Bernstein and others
DR20 -8.44 дБ -33.27 дБ 5:49 13-Averting
DR18 -8.54 дБ -32.17 дБ 8:18 14-A hysteric return
--------------------------------------------------------------------------------
Количество треков: 14
Реальные значения DR: DR16
Частота: 2822400 Гц / Частота PCM: 88200 Гц
Каналов: 2
Разрядность: 24
Битрейт: 5645 кбит/с
Кодек: DST64
================================================================================
foobar2000 1.3.8 / Замер динамического диапазона (DR) 1.1.1
Дата отчёта: 2016-03-08 12:45:13
--------------------------------------------------------------------------------
Анализ: ? / The Glenn Gould Trilogy - His Life
--------------------------------------------------------------------------------
DR Пики RMS Продолжительность трека
--------------------------------------------------------------------------------
DR15 -11.00 дБ -39.37 дБ 4:12 01-Prologue
DR16 -12.22 дБ -36.71 дБ 2:58 02-Splendid isolation
DR17 -12.65 дБ -38.53 дБ 6:16 03-Repertory I - The 20th century
DR16 -8.96 дБ -34.52 дБ 6:43 04-Mozart
DR16 -9.04 дБ -36.30 дБ 11:56 05-In the studio I - takes and off-takes
DR18 -8.90 дБ -37.43 дБ 5:15 06-Coalitions
DR18 -11.14 дБ -39.41 дБ 9:10 07-At home with Glenn Gould
DR16 -12.34 дБ -35.64 дБ 5:46 08-Glenn Gould interviews about Glenn Gould
DR16 -9.02 дБ -35.96 дБ 8:30 09-In the studio II - experiments
DR16 -10.84 дБ -35.71 дБ 3:25 10-Radio as music
DR18 -11.94 дБ -38.79 дБ 6:13 11-Repertory II - The 19th century
DR16 -14.98 дБ -40.70 дБ 6:37 12-Finale
--------------------------------------------------------------------------------
Количество треков: 12
Реальные значения DR: DR17
Частота: 2822400 Гц / Частота PCM: 88200 Гц
Каналов: 6
Разрядность: 24
Битрейт: 16934 кбит/с
Кодек: DST64
================================================================================
[teatrix.ru].t23248.torrent 
Торрент: Зарегистрирован [ 2016-03-21 00:30 ] · 1DFA8536C976292B42337E7F004B9F60385980DE

Скачать .torrent

Скачать

65 KB

Статус: проверено
Скачан: 1 раз
Размер: 12.88 GB
terms.php



Быстрый ответ

Имя:

      
Для отправки сообщений необходимо включить JavaScript
Показать сообщения:    

Текущее время: 05-Дек 23:40

Часовой пояс: UTC + 3


Вы можете начинать темы
Вы можете отвечать на сообщения
Вы не можете редактировать свои сообщения
Вы не можете удалять свои сообщения
Вы не можете голосовать в опросах
Вы не можете прикреплять файлы к сообщениям
Вы можете скачивать файлы