АРБ Урок дуэтно - классического танца (Десницкий В.С) [2001 г., экзамен, VHSRip]


 

[Цитировать]

АРБ Урок дуэтно - классического танца
Год выпуска: 2001
Жанр: экзамен
Продолжительность: 48:28
Режиссер: Десницкий В.С
Качество: VHSRip
Формат: AVI
Видео кодек: Другой MPEG4
Аудио кодек: MPEG Audio

MediaInfo

Format : CDXA/MPEG-PS
File size : 489 MiB
Duration : 50mn 11s
Overall bit rate : 1 412 Kbps
Video
ID : 224 (0xE0)
Format : MPEG Video
Format version : Version 1
Format settings, BVOP : Yes
Format settings, Matrix : Default
Duration : 50mn 11s
Bit rate mode : Constant
Bit rate : 1 120 Kbps
Width : 352 pixels
Height : 288 pixels
Display aspect ratio : 4:3
Frame rate : 25.000 fps
Standard : PAL
Color space : YUV
Bit depth : 8 bits
Scan type : Progressive
Bits/(Pixel*Frame) : 0.442
Stream size : 402 MiB (82%)
Audio
ID : 192 (0xC0)
Format : MPEG Audio
Format version : Version 1
Format profile : Layer 2
Duration : 48mn 28s
Bit rate mode : Constant
Bit rate : 224 Kbps
Channel(s) : 2 channels
Sampling rate : 44.1 KHz
Video delay : -80ms
Stream size : 77.7 MiB (16%)

Скриншоты



Последний раз редактировалось: panaleksei (2010-11-11 03:45), всего редактировалось 1 раз

[Цитировать]

тороплюсь сообщить, что программа авиинфо не смогла мне указать полные данные, так что выкладываю как есть.

[Цитировать]

panaleksei
Для файлов отличных от расширения avi - необходимо использовать программу Mediainfo-Для 32 битных windows - http://turbobit.net/nbn68pi1u1zz.html
Для 64 битных windows- http://turbobit.net/zw0vli9itd5k.html
Информацию программы необходимо скопировать полностью и вставить в текст, закрыв спойлером.
добавлено спустя 1 минуту:
Поменяйте постер на приблизительно схожий по смыслу релиза.

[Цитировать]

admin
Пожалуйста, дайте ссылки на программу Mediainfo в теме Как получить информацию по файлу
Как же я искала ее, а Вы молчали!
Не оставляйте ее в теме лично для panaleksei - другим тоже может понадобиться.

[Цитировать]

ЭЭЭЭ но это не файл AVI
AVSEQ01.DAT

[Цитировать]

.DAT
О как!)))
Качаю) вообще расширение этот бояться не надо) Если есть все кодеки, то открыть можно практически любым плеером. Сейчас скачаю и проверим)
Раздачу не закрываю, но прошу воздержаться желающих до полного разъяснения.

[Цитировать]

admin
Да я то разберусь, я про то, что многим это будет непонятно

[Цитировать]

admin
хорошо открывается в компутере, рябит в глазах, но я сейчас не предираюсь, понимаю-раритет. За что автору благодарность и низкий поклон :hrr:

[Цитировать]

Я перенконвертировал в avi, может стоит перезалить?

[Цитировать]

Может убрать цвет, что бы не рябило и перезалить

[Цитировать]

Может убрать цвет, что бы не рябило и перезалить
Да, я сразу убрал насыщенность, получилось вполне приличное черно-белое учебное кино.
Еще раз спасибо раздающему. :beer:

[Цитировать]

Нет я имею ввиду, что сделать новую раздачу. Но при этом сразу убрать цветность из файла, и если получится улучшить картинку.

[Цитировать]

:x
Ну, во-первых, я уже скачал и успешно раздаю
Во-вторых, потеряется аромат старинной видеозаписи
И, в-третьих, уважаемый panaleksei всех честно предупредил о качестве :)

[Цитировать]

Может убрать цвет, что бы не рябило
Господа, как приятно, что все мы мыслим одинаково! Я тоже об этом подумала :oops:
Но про "перезалить", думаю, не стоит. Если сам автор раздачи этого не захочет...

[Цитировать]

panaleksei
Осмелюсь добавить в ваш релиз информацию по файлу.

[Цитировать]

admin
спасибо, буду только благодарен :) добавьте пожалуйста


Показать сообщения:    

Текущее время: 08-Дек 23:12

Часовой пояс: UTC + 3


Вы не можете начинать темы
Вы не можете отвечать на сообщения
Вы не можете редактировать свои сообщения
Вы не можете удалять свои сообщения
Вы не можете голосовать в опросах
Вы не можете прикреплять файлы к сообщениям
Вы не можете скачивать файлы