(Classical / Waltz) VA - Старинные вальсы [Мелодия, MEL CD 60 00835] - 2004, WAVPack (image + .cue), lossless


 

[Цитировать]

VA - Старинные вальсы [Мелодия, MEL CD 60 00835]
Страна: Россия
Жанр: Classical / Waltz
Год выпуска: 2004
Формат: WAVPack (image + .cue)
Битрейт аудио: lossless
Продолжительность: 1:05:12
Треклист:
01. На сопках Маньчжурии - И. Шатров (2:56)
02. Дунайские волны - И. Ивановичи (4:50)
03. Берёзка - Е. Дрейзин (4:24)
04. Лесная сказка - Б. Беккер (2:39)
05. Воспоминание - А. Джойс (4:52)
06. Орхидея - В. Андреев (3:30)
07. Амурские волны - М. Кюсс (3:05)
08. Ожидание - Г. Китлер (3:48)
09. Над волнами - Х. Росас (5:03)
10. Оборванные струны - П. Гапон (2:36)
11. Грёзы - Эбан (5:04)
12. Голубая ночь - В. Агапкин (3:06)
13. Судьба - А. Байнис (5:45)
14. Сирены - Э. Вальдтейфейль (8:24)
15. Осенний сон - А. Джойс (5:10)
Исполнители:
1 - 13: Отдельный показательный оркестр Министерства Обороны СССР. Дирижёры: Н. Назаров, Н. Сергеев (8). Записи 1969 г. (1-6), 1965 г. (7-9), 1972 г. (10-13).
14, 15: Образцово-показательный оркестр внутренних войск МВД СССР. Дирижёр В. Макаров. Запись 1988 г.
Доп. информация:

Отчёт EAC

Exact Audio Copy V1.0 beta 1 from 15. November 2010
EAC extraction logfile from 20. March 2011, 0:50
Various / Старинные вальсы [Мелодия, MEL CD 60 00835]
Used drive : SONY CD-ROM CDU5215 Adapter: 0 ID: 0
Read mode : Secure
Utilize accurate stream : Yes
Defeat audio cache : Yes
Make use of C2 pointers : No
Read offset correction : 12
Overread into Lead-In and Lead-Out : No
Fill up missing offset samples with silence : Yes
Delete leading and trailing silent blocks : No
Null samples used in CRC calculations : Yes
Used interface : Installed external ASPI interface
Used output format : User Defined Encoder
Selected bitrate : 128 kBit/s
Quality : High
Add ID3 tag : No
Command line compressor : C:\wavpack\wavpack.exe
Additional command line options : -h %s %d
TOC of the extracted CD
Track | Start | Length | Start sector | End sector
---------------------------------------------------------
1 | 0:00.00 | 2:55.42 | 0 | 13166
2 | 2:55.42 | 4:50.08 | 13167 | 34924
3 | 7:45.50 | 4:24.05 | 34925 | 54729
4 | 12:09.55 | 2:39.37 | 54730 | 66691
5 | 14:49.17 | 4:51.40 | 66692 | 88556
6 | 19:40.57 | 3:30.05 | 88557 | 104311
7 | 23:10.62 | 3:04.38 | 104312 | 118149
8 | 26:15.25 | 3:47.67 | 118150 | 135241
9 | 30:03.17 | 5:03.00 | 135242 | 157966
10 | 35:06.17 | 2:36.08 | 157967 | 169674
11 | 37:42.25 | 5:04.12 | 169675 | 192486
12 | 42:46.37 | 3:06.18 | 192487 | 206454
13 | 45:52.55 | 5:44.50 | 206455 | 232304
14 | 51:37.30 | 8:24.25 | 232305 | 270129
15 | 60:01.55 | 5:10.20 | 270130 | 293399
Range status and errors
Selected range
Filename G:\temp\Разные исполнители - Старинные вальсы [Мелодия, MEL CD 60 00835]\Various - Старинные вальсы [Мелодия, MEL CD 60 00835].wav
Peak level 99.2 %
Extraction speed 0.6 X
Range quality 100.0 %
Test CRC E73AF31F
Copy CRC E73AF31F
Copy OK
No errors occurred
AccurateRip summary
Track 1 accurately ripped (confidence 2) [7B12803A]
Track 2 accurately ripped (confidence 2) [9950E1AC]
Track 3 accurately ripped (confidence 2) [A4524492]
Track 4 accurately ripped (confidence 1) [AFAAC8CD]
Track 5 accurately ripped (confidence 1) [DC873C1D]
Track 6 accurately ripped (confidence 1) [5343DED8]
Track 7 accurately ripped (confidence 1) [87B43FF8]
Track 8 accurately ripped (confidence 1) [26C59AD6]
Track 9 accurately ripped (confidence 1) [5829F342]
Track 10 accurately ripped (confidence 1) [43AF9DE1]
Track 11 accurately ripped (confidence 1) [0ED93A25]
Track 12 accurately ripped (confidence 1) [B1DD63A0]
Track 13 accurately ripped (confidence 1) [A1A1DDF9]
Track 14 accurately ripped (confidence 1) [ED5ABC38]
Track 15 accurately ripped (confidence 2) [8F0334B3]
All tracks accurately ripped
End of status report
==== Log checksum 0431661C6571727C776F07C5CF09429154FBA9B9AD28E60F2417BEBACF4727E8 ====

Файл .cue

REM GENRE Classical
REM DATE 2004
REM DISCID DD0F480F
REM COMMENT "ExactAudioCopy v1.0b1"
PERFORMER "Various"
TITLE "Старинные вальсы [Мелодия, MEL CD 60 00835]"
FILE "Various - Старинные вальсы [Мелодия, MEL CD 60 00835].wv" WAVE
TRACK 01 AUDIO
TITLE "На сопках Маньчжурии (И. Шатров)"
PERFORMER "Отдельный показательный оркестр Министерства Обороны СССР"
INDEX 01 00:00:00
TRACK 02 AUDIO
TITLE "Дунайские волны (И. Ивановичи)"
PERFORMER "Отдельный показательный оркестр Министерства Обороны СССР"
INDEX 00 02:52:12
INDEX 01 02:55:42
TRACK 03 AUDIO
TITLE "Берёзка (Е. Дрейзин)"
PERFORMER "Отдельный показательный оркестр Министерства Обороны СССР"
INDEX 00 07:42:12
INDEX 01 07:45:50
TRACK 04 AUDIO
TITLE "Лесная сказка (Б. Беккер)"
PERFORMER "Отдельный показательный оркестр Министерства Обороны СССР"
INDEX 00 12:06:00
INDEX 01 12:09:55
TRACK 05 AUDIO
TITLE "Воспоминание (А. Джойс)"
PERFORMER "Отдельный показательный оркестр Министерства Обороны СССР"
INDEX 00 14:45:50
INDEX 01 14:49:17
TRACK 06 AUDIO
TITLE "Орхидея (В. Андреев)"
PERFORMER "Отдельный показательный оркестр Министерства Обороны СССР"
INDEX 00 19:37:12
INDEX 01 19:40:57
TRACK 07 AUDIO
TITLE "Амурские волны (М. Кюсс)"
PERFORMER "Отдельный показательный оркестр Министерства Обороны СССР"
INDEX 00 23:07:00
INDEX 01 23:10:62
TRACK 08 AUDIO
TITLE "Ожидание (Г. Китлер)"
PERFORMER "Отдельный показательный оркестр Министерства Обороны СССР"
INDEX 00 26:11:37
INDEX 01 26:15:25
TRACK 09 AUDIO
TITLE "Над волнами (Х. Росас)"
PERFORMER "Отдельный показательный оркестр Министерства Обороны СССР"
INDEX 00 29:59:32
INDEX 01 30:03:17
TRACK 10 AUDIO
TITLE "Оборванные струны (П. Гапон)"
PERFORMER "Отдельный показательный оркестр Министерства Обороны СССР"
INDEX 00 35:02:12
INDEX 01 35:06:17
TRACK 11 AUDIO
TITLE "Грёзы (Эбан)"
PERFORMER "Отдельный показательный оркестр Министерства Обороны СССР"
INDEX 00 37:38:30
INDEX 01 37:42:25
TRACK 12 AUDIO
TITLE "Голубая ночь (В. Агапкин)"
PERFORMER "Отдельный показательный оркестр Министерства Обороны СССР"
INDEX 00 42:43:12
INDEX 01 42:46:37
TRACK 13 AUDIO
TITLE "Судьба (А. Байнис)"
PERFORMER "Отдельный показательный оркестр Министерства Обороны СССР"
INDEX 00 45:49:12
INDEX 01 45:52:55
TRACK 14 AUDIO
TITLE "Сирены (Э. Вальдтейфейль)"
PERFORMER "Образцово-показательный оркестр внутренних войск МВД СССР"
INDEX 00 51:33:25
INDEX 01 51:37:30
TRACK 15 AUDIO
TITLE "Осенний сон (А. Джойс)"
PERFORMER "Образцово-показательный оркестр внутренних войск МВД СССР"
INDEX 00 59:58:25
INDEX 01 60:01:55

Отчёт Tau Analyzer




Показать сообщения:    

Текущее время: 10-Дек 06:09

Часовой пояс: UTC + 3


Вы не можете начинать темы
Вы не можете отвечать на сообщения
Вы не можете редактировать свои сообщения
Вы не можете удалять свои сообщения
Вы не можете голосовать в опросах
Вы не можете прикреплять файлы к сообщениям
Вы не можете скачивать файлы