(Ballet) Олег Ходоско - Золотой ключик (А. Лапунов) / Oleg Hodosko - The gold key (A. Lapunov) 2000г., APE (image+.cue,0), lossless


 

[Цитировать]

Золотой ключик / The gold key
Жанр: Ballet
Год выпуска: 2000
Производитель диска: РБ
Тип альбома: Bootleg
Формат: APE (image + .cue)
Битрейт аудио: lossless
Продолжительность: 1:04:22
Доп. информация: Симфонический оркестр Белорусской телерадио компании
Дирижёр: Анатолий Лапунов
Балет написан по одноимённой сказке А. Толстого "Золотой ключик"
Трэклист:
1. Театр на базарной площади
2. Мальвина
3. Танец Буратино
4. Дуэт Кота и Лисы
5. Урок танца
6. Танец Карабаса
7. Эпилог
8. Поле чудес
9. Танец буратино
10. Карабас
11. Черепаха Тортила
12. Арлекин
13. Пьеро
14. Полицейские преследуют Буратино
15. Вариации Мальвины
16. Начальник караула
17. Мотыльки и стрекозы
18. Погоня
19. Дуэт Буратино и Тортилы
20. Грабители
21. Харчевня «Три пескаря»

Краткая биография О. Ходоско

Олег Ходоско.
Родился 21 марта 1964 г. в г. Алма-Ате. В 1982 г. Поступил в Белорусскую государственную консерваторию на отделение композиции, а затем, 1987 г., в ассистентуру-стажировку при консерватории (класс профессора А. В. Богатырева), которую окончил в 1989 г.
За годы учебы принимал участие во Всесоюзных конкурсах студентов-композиторов в г. Москве, где был отмечен дипломом третей степени за вокальный цикл «Белорусский альбом» 1985г., дипломом первой степени за Струнный квартет №1. В 1988г. за исполнение струнного квартета №1 на Днях Белорусской культуры в Москве, был награжден серебряной медалью ВДНХ СССР.
В 1991 г. Кантата «Песни Белой Руси» была исполнена в Испании. За рубежом звучали также: «Литургия Ионна Златоуста» (Германия), «Всенощное бдение» (Польша, Германия), Симфония №4 «Белая Русь» (Россия).
Произведения О. Ходоско исполняются ведущими коллективами Республики Беларусь: Симфоническими оркестрами Белорусской государственной филармонии и Белтелерадиокомпании, оркестром «Молодая Беларусь», Государственной академической хоровой капеллой им. Ширмы, Государственным камерным хором, Хоровой капеллой «Сонорус». В 2002 г. Государственным симфоническим оркестром Телевидения и Радио России и российской звукозаписывающей фирмой «Olympia» в проекте «Антология Белорусской классической музыки» выпущен диск с записью Симфонии №4 О. Ходоско «Белая Русь». В 2006 г. Латвийской Национальной оперой (Рига) поставлен балет «Золушка» (балетмейстер Р. Поклитару), который до сих пор находится в репертуаре театра и идёт с неизменным успехом.
В 2002 г. за Симфонию №1 «Покаянная» и «Всенощное бдение» композитор был удостоен высокого звания лауреата Государственной премии Республики Беларусь.
Олег Ходоско автор опер «Тень» (либретто Р. Поклитару и О. Ходоско) и «Чёрный монах» (либретто О. Ходоско). Балетов «Золотой ключик» и «Золушка». Четырёх симфоний, кантат «Песнi Белай Русi» и «Псальмы-калядкi», камерной музыки, музыки для театра и кино.
С 2003 г. старший преподаватель кафедры композиции Белорусской государственной академии музыки.
Член Союза композиторов Республики Беларусь с 1989 г.

Отчёт EAC

Exact Audio Copy V0.99 prebeta 4 from 23. January 2008
Отчёт EAC об извлечении, выполненном 19. марта 2009, 22:04
О. Ходоско Золотой ключик, А. Лапунов / О. Ходоско - Золотой ключик
Дисковод: ASUS DRW-1814BL Adapter: 1 ID: 0
Режим чтения : Достоверность
Использование точного потока : Да
Отключение кэша аудио : Да
Использование указателей C2 : Нет
Коррекция смещения при чтении : 6
Способность читать области Lead-in и Lead-out : Нет
Заполнение пропущенных сэмплов тишиной : Да
Удаление блоков с тишиной в начале и конце : Нет
При вычислениях CRC использовались нулевые сэмплы : Да
Интерфейс : Установленный внешний ASPI-интерфейс
Выходной формат : Внутренние WAV-операции
Формат сэмплов : 44.100 Гц; 16 бит; стерео
TOC извлечённого CD
Трек | Старт | Длительность | Начальный сектор | Конечный сектор
---------------------------------------------------------------------
1 | 0:00.00 | 2:19.16 | 0 | 10440
2 | 2:19.16 | 2:13.47 | 10441 | 20462
3 | 4:32.63 | 2:34.22 | 20463 | 32034
4 | 7:07.10 | 2:14.13 | 32035 | 42097
5 | 9:21.23 | 2:15.38 | 42098 | 52260
6 | 11:36.61 | 3:42.39 | 52261 | 68949
7 | 15:19.25 | 2:59.70 | 68950 | 82444
8 | 18:19.20 | 3:32.15 | 82445 | 98359
9 | 21:51.35 | 2:59.54 | 98360 | 111838
10 | 24:51.14 | 3:32.14 | 111839 | 127752
11 | 28:23.28 | 2:48.09 | 127753 | 140361
12 | 31:11.37 | 2:43.74 | 140362 | 152660
13 | 33:55.36 | 4:14.37 | 152661 | 171747
14 | 38:09.73 | 2:18.04 | 171748 | 182101
15 | 40:28.02 | 2:29.21 | 182102 | 193297
16 | 42:57.23 | 2:14.23 | 193298 | 203370
17 | 45:11.46 | 4:39.25 | 203371 | 224320
18 | 49:50.71 | 2:31.36 | 224321 | 235681
19 | 52:22.32 | 3:11.34 | 235682 | 250040
20 | 55:33.66 | 3:15.07 | 250041 | 264672
21 | 58:48.73 | 5:33.63 | 264673 | 289710
Характеристики диапазона извлечения и сообщения об ошибках
Выбранный диапазон
Имя файла D:\Music\Music for Andre\Temp\Новая папка\О. Ходоско - Золотой ключик\О. Ходоско Золотой ключик, А. Лапунов - О. Ходоско - Золотой ключик.wav
Пиковый уровень 100.0 %
Качество диапазона 99.9 %
CRC копии 2F8CD893
Копирование... OK
Ошибок не произошло
Конец отчёта


Последний раз редактировалось: admin (2014-10-09 02:22), всего редактировалось 1 раз

[Цитировать]

Ну раз пошла такая свадьба bk
то вот еще один ключик :cd:
http://teatrix.ru/viewtopic.php?t=3062


Показать сообщения:    

Текущее время: 10-Дек 21:37

Часовой пояс: UTC + 3


Вы не можете начинать темы
Вы не можете отвечать на сообщения
Вы не можете редактировать свои сообщения
Вы не можете удалять свои сообщения
Вы не можете голосовать в опросах
Вы не можете прикреплять файлы к сообщениям
Вы не можете скачивать файлы