Бахчисарайский фонтан (Колегова / Ниорадзе / Кузнецов / Зюзин) — Борис Асафьев / The Fountain of Bakhchisarai ( Kolegova / Nioradze / Kuznetsov / Zyuzin ) (Ростислав Захаров) [2011, Российская Федерация, балет, Любительская съемка] Мариинский театр


 

[Цитировать]

Бахчисарайский фонтан ( Колегова / Ниорадзе / Кузнецов / Зюзин ) — Борис Асафьев / The Fountain of Bakhchisarai ( Kolegova / Nioradze / Kuznetsov / Zyuzin ) - Boris Asafiev
Название театра: Мариинский театр
Страна: Российская Федерация
Жанр: балет
Год выпуска: 2011
Продолжительность: 1:38:20
Хореограф: Ростислав Захаров
Либретто Николая Волкова по поэме А.С. Пушкина
Художник: Валентина Ходасевич
В ролях:
Князь Адам, польский магнат - Пётр Стасюнас
Мария, его дочь - Анастасия Колегова
Вацлав, жених Марии - Максим Зюзин
Гирей, крымский хан - Илья Кузнецов
Зарема, жена Гирея - Ирма Ниорадзе
Нурали, военачальник - Фёдор Мурашов
Артисты балета и оркестр Мариинского театра. Дирижёр - Светлана Филиппович

Описание

Бахчисарайский фонтан
хореографическая поэма в 4-х действиях с прологом и эпилогом
KРАТКОЕ СОДЕРЖАНИЕ БАЛЕТА
Пролог
Уединенный покой в Бахчисарайском дворце. Перед мраморным фонтаном, воздвигнутым в память "горестной Марии", склонился хан Гирей.
Действие первое
В старинном замке празднуют день рождения Марии, дочери знатного польского феодала.
Княжна Мария, оставив гостей, встречается со своим женихом Вацлавом.
Из темноты неожиданно появляется лазутчик из вражеских отрядов хана Гирея. Едва он успевает скрыться в густых зарослях парка, как вбегает выслеживающая его польская стража.
Тем временем праздник идет своим чередом. Под звуки торжественного полонеза в парк выходят гости. В первой паре – Мария со своим отцом. Полонез сменяется мазуркой, танец следует за танцем.
Веселье прерывается появлением раненого начальника стражи, который сообщает о набеге татар. Князь Адам призывает мужчин к оружию. Женщины укрываются в замке. Обнажив сабли, поляки готовятся отразить натиск врагов.
Горит подожженный татарами замок. В смертельной схватке с врагами гибнут его защитники. Чудом уцелевшие Мария и Вацлав бегут сквозь пламя пожара и хаос кровавой битвы, но им преграждает дорогу предводитель набега – крымский хан Гирей. Вацлав бросается навстречу Гирею, но тут же падает, сраженный его кинжалом. Хан срывает с Марии шаль и застывает, восхищенный ее красотой.
Действие второе
Гарем хана Гирея в Бахчисарайском дворце. Среди многочисленных наложниц " любимая жена Гирея Зарема.
Звучат боевые трубы. Гарем готовится к встрече своего господина. С богатой добычей возвращаются татары. Бережно проносят плененную Марию.
В задумчивости Гирей входит в гарем. Напрасно Зарема пытается развлечь хана, он ее не замечает. Но вот на лице Гирея вспыхивает радость, и Зарема видит, как через зал служанка проводит новую пленницу – польскую княжну. Зарема понимает, что утратила любовь Гирея.
Тщетно наложницы пытаются развеселить своего господина, тщетно надеется Зарема вернуть его любовь. Отстранив Зарему, хан уходит. Зарема в отчаянии.
Действие третье
Роскошная опочивальня. Здесь, охраняемая старой прислужницей, томится прекрасная пленница хана. Только одна лютня напоминает Марии о прежней жизни, свободе, былом счастье. В памяти возникает целый мир воспоминаний о родном доме и о Вацлаве.
Мечты Марии нарушает приход Гирея. Он молит девушку принять его смиренную любовь и все богатства, которыми он владеет. Но Мария испытывает лишь страх и отвращение к Гирею, убившему ее любимого, родных и друзей. Гирей покорно удаляется.
Ночью в опочивальню княжны проникает Зарема. Она обращается к Марии с горячей исповедью, требует, чтобы она оттолкнула от себя Гирея.
Страстная речь Заремы непонятна Марии и пугает ее.
Зарема замечает тюбетейку Гирея, забытую им при объяснении с Марией. Значит, Гирей был здесь. Охваченная ревностью, Зарема бросается на Марию с кинжалом.
Вбегает Гирей, но поздно: Зарема убивает Марию.
Действие четвертое
Двор во дворце хана Гирея. Все склонились перед ним в молчаливом раболепии.
Ничто не радует и не волнует хана: ни возвращение татар после нового набега, ни новые прекрасные пленницы.
Зарему ведут к месту казни. По знаку Гирея ее бросают в пропасть.
Военачальник Гирея Нурали пытается отвлечь господина от мрачных дум. Но воинственные пляски не приносят забвения.
Эпилог
Гирей у "Фонтана слез".
Вереницей бегут воспоминания, снова и снова воскрешая прекрасный образ Марии.

Дополнительная информация

Премьера балета «Бахчисарайский фонтан» состоялась 28 сентября 1934 г. в Ленинградском академическом театре оперы и балета им. С.М. Кирова (хореограф — Ростислав Захаров, художник — Валентина Ходасевич), главные партии в день премьеры исполняли: Мария — Галина Уланова, Зарема — Ольга Иордан, Вацлав — Константин Сергеев, Гирей — Михаил Дудко, дирижировал спектаклем Е.А. Мравинский. 20 апреля 1936 г. этот балет также в хореографии Ростислава Захарова и в оформлении Валентины Ходасевич был исполнен в Музыкальном театре имени Немировича-Данченко (режиссёр — П.А. Марков, дирижёр — В.А. Эдельман). Главные партии исполняли: Мария — Ангелина Урусова, Зарема — Викторина Кригер, Вацлав — В. Беликов, Гирей — Александр Клейн. 11 июня 1936 г. премьера «Бахчисарайского фонтана» состоялась на сцене Большого театра (хореограф — Ростислав Захаров, художник — Валентина Ходасевич), дирижёр — Ю.Ф. Файер. Главные партии исполняли: Мария — Вера Васильева, Зарема — Л. Бланк, Вацлав — Михаил Габович, Гирей — Пётр Гусев.
Качество видео: любительская съемка
Формат видео: DVDVideo
Видео кодек: MPEG2
Аудио кодек: AC3
Видео: PAL, 720x576, 2820 kbps variable, 25 fps
Аудио: AC3 Dolby Digital, 256 kbps, 48 kHz, 2/0 (L,R) ch

MediaInfo

Общее
Полное имя: … \The Fountain of Bakhchisarai-DVD\VIDEO_TS\VTS_01_1.VOB
Формат : MPEG-PS
Размер файла : 813 Мбайт
Продолжительность : 35 м.
Режим общего битрейта : Переменный
Общий поток : 3164 Кбит/сек
Видео
Идентификатор : 224 (0xE0)
Формат : MPEG Video
Версия формата : Version 2
Профиль формата : Main@Main
Параметр BVOP формата : Да
Параметр матрицы формата: Выборочная
Параметр GOP формата : Variable
Format_Settings_PictureStructure: Frame
Продолжительность : 35 м.
Вид битрейта : Переменный
Битрейт : 2845 Кбит/сек
Максимальный битрейт : 9641 Кбит/сек
Ширина : 720 пикселей
Высота : 576 пикселей
Соотношение сторон : 4:3
Частота кадров : 25,000 кадров/сек
Стандарт вещания : PAL
Цветовое пространство : YUV
Субдискретизация насыщенности: 4:2:0
Битовая глубина : 8 бит
Тип развёртки : Чересстрочная
Порядок развёртки : Верхнее поле первое
Метод сжатия : С потерями
Бит/(Пиксели*Кадры) : 0.274
Временной код первого кадра: 00:00:00:00
Оригинал временного кода : Group of pictures header
Размер потока : 731 Мбайт (90%)
Аудио
Идентификатор : 189 (0xBD)-128 (0x80)
Формат : AC-3
Формат/Информация : Audio Coding 3
Расширение режима : CM (complete main)
Параметр Endianness формата: Big
Режим смешивания : DVD-Video
Продолжительность : 35 м.
Вид битрейта : Постоянный
Битрейт : 256 Кбит/сек
Каналы : 2 канала
Расположение каналов : Front: L R
Частота : 48,0 КГц
Битовая глубина : 16 бит
Метод сжатия : С потерями
Задержка видео : 8 мс.
Размер потока : 65,8 Мбайт (8%)
Общее
Полное имя: … \The Fountain of Bakhchisarai-DVD\VIDEO_TS\VTS_02_1.VOB
Формат : MPEG-PS
Размер файла : 612 Мбайт
Продолжительность : 27 м.
Режим общего битрейта : Переменный
Общий поток : 3136 Кбит/сек
Видео
Идентификатор : 224 (0xE0)
Формат : MPEG Video
Версия формата : Version 2
Профиль формата : Main@Main
Параметр BVOP формата : Да
Параметр матрицы формата : Выборочная
Параметр GOP формата : Variable
Format_Settings_PictureStructure: Frame
Продолжительность : 27 м.
Вид битрейта : Переменный
Битрейт : 2817 Кбит/сек
Максимальный битрейт : 9641 Кбит/сек
Ширина : 720 пикселей
Высота : 576 пикселей
Соотношение сторон : 4:3
Частота кадров : 25,000 кадров/сек
Стандарт вещания : PAL
Цветовое пространство : YUV
Субдискретизация насыщенности: 4:2:0
Битовая глубина : 8 бит
Тип развёртки : Чересстрочная
Порядок развёртки : Верхнее поле первое
Метод сжатия : С потерями
Бит/(Пиксели*Кадры) : 0.272
Временной код первого кадра : 00:00:00:00
Оригинал временного кода : Group of pictures header
Размер потока : 550 Мбайт (90%)
Аудио
Идентификатор : 189 (0xBD)-128 (0x80)
Формат : AC-3
Формат/Информация : Audio Coding 3
Расширение режима : CM (complete main)
Параметр Endianness формата : Big
Режим смешивания : DVD-Video
Продолжительность : 27 м.
Вид битрейта : Постоянный
Битрейт : 256 Кбит/сек
Каналы : 2 канала
Расположение каналов : Front: L R
Частота : 48,0 КГц
Битовая глубина : 16 бит
Метод сжатия : С потерями
Задержка видео : 8 мс.
Размер потока : 49,9 Мбайт (8%)
Общее
Полное имя: … \The Fountain of Bakhchisarai-DVD\VIDEO_TS\VTS_03_1.VOB
Формат : MPEG-PS
Размер файла : 784 Мбайт
Продолжительность : 35 м.
Режим общего битрейта : Переменный
Общий поток : 3105 Кбит/сек
Видео
Идентификатор : 224 (0xE0)
Формат : MPEG Video
Версия формата : Version 2
Профиль формата : Main@Main
Параметр BVOP формата : Да
Параметр матрицы формата : Выборочная
Параметр GOP формата : M=3, N=12
Format_Settings_PictureStructure: Frame
Продолжительность : 35 м.
Вид битрейта : Переменный
Битрейт : 2787 Кбит/сек
Максимальный битрейт : 9641 Кбит/сек
Ширина : 720 пикселей
Высота : 576 пикселей
Соотношение сторон : 4:3
Частота кадров : 25,000 кадров/сек
Стандарт вещания : PAL
Цветовое пространство : YUV
Субдискретизация насыщенности: 4:2:0
Битовая глубина : 8 бит
Тип развёртки : Чересстрочная
Порядок развёртки : Верхнее поле первое
Метод сжатия : С потерями
Бит/(Пиксели*Кадры) : 0.269
Временной код первого кадра : 00:00:00:00
Оригинал временного кода : Group of pictures header
Размер потока : 704 Мбайт (90%)
Аудио
Идентификатор : 189 (0xBD)-128 (0x80)
Формат : AC-3
Формат/Информация : Audio Coding 3
Расширение режима : CM (complete main)
Параметр Endianness формата : Big
Режим смешивания : DVD-Video
Продолжительность : 35 м.
Вид битрейта : Постоянный
Битрейт : 256 Кбит/сек
Каналы : 2 канала
Расположение каналов : Front: L R
Частота : 48,0 КГц
Битовая глубина : 16 бит
Метод сжатия : С потерями
Задержка видео : 8 мс.
Размер потока : 64,7 Мбайт (8%)

Скриншот с названием постановки

Диск с записью этого спектакля в формате "ДВД-Видео" был приобретён на одном из рынков. Для удобства навигации запись была снабжена несложным меню посредством программы NeroVision. Работа меню протестирована в двух аппаратных плеерах (Sony RDR-HX 1020, Novex ND-9102) и четырёх программных плеерах (Media Player Classic, GOM Player, VLC media player, Nero ShowTime). Все программные плееры уверенно откликались на команды компьютерной мыши и/или на манипуляции кнопками "стрелка" клавиатуры. Аппаратные плееры для входа в меню требовали нажатия кнопки "Menu" (или её аналогов - "Title" и проч.) на пульте ДУ.
В формате "AVI" запись спектакля раздаётся на трекере "Рутрекер" (1,45 GB).
Выше "Качество видео" обозначено как "любительская съёмка" - весь спектакль снят одной камерой, не всегда отчётливо звучит звук (видимо, из-за того, что записан на встроенные микрофоны видеокамеры). Однако, качество картинки вполне приличное, запись весьма напоминает рабочую техническую запись театра.

Топик был перенесен из форума Балеты (Video) в форум Балеты (DVD и HD)
admin

[Цитировать]

admin, это - не официальный ДВД, не стоит его переносить в раздел "Балеты (DVD и HD)". Иначе этот раздел раньше ли, позже ли наполнится разными ТВ-рипами в формате ДВД-Видео, что неправильно. Здесь качество записи очень неплохое, но это не фабричный ДВД. Этому место в разделе "Видео". ИМХО, по моему глубокому убеждению.А то ТВ-рипы (и прочее) в формате ДВД-Видео под видом ДВД5, достали, должен отметить. Они, безусловно, должны быть, но на своём месте, в своём разделе. А ДВД-5 это не только стркутура диска, это - качественная запись с нескольких камер, качественный звук.
Пожалуйста, admin, всему своё место.


Показать сообщения:    

Текущее время: 05-Дек 01:19

Часовой пояс: UTC + 3


Вы не можете начинать темы
Вы не можете отвечать на сообщения
Вы не можете редактировать свои сообщения
Вы не можете удалять свои сообщения
Вы не можете голосовать в опросах
Вы не можете прикреплять файлы к сообщениям
Вы не можете скачивать файлы