Кармен-сюита (Лопаткина / Козлов / Шпилевский) - Жорж Бизе, Родион Щедрин – Большой театр России / Carmen-suite ( Lopatkina / Kozlov / Shpilevskiy ) - G. Bizet, R. Schedrin (Альберто Алонсо / Alberto Alonso) [2007, балет, съёмка студии театра]


 

[Цитировать]

Кармен-сюита ( Лопаткина / Козлов / Шпилевский ) - Жорж Бизе, Родион Щедрин – Большой театр России / Carmen-suite ( Lopatkina / Kozlov / Shpilevskiy ) - Georges Bizet, R. Schedrin - The Bolshoi Ballet
Название театра: Большой театр
Страна: Российская Федерация
Жанр: балет
Год выпуска: 2007
Продолжительность: 00:50:50
Хореограф: Альберто Алонсо/Alberto Alonso
Либретто: Альберто Алонсо/Alberto Alonso по мотивам новеллы Проспера Мериме
Ассистент хореографа: Соня Калеро Алонсо/Sonia Calero Alonso
Оформление: Борис Мессерер
Художник по всету: Александр Рубцов
В ролях:
Кармен — Ульяна Лопаткина
Хозе — Иван Козлов
Тореро — Артем Шпилевский
Рок — Наталья Выскубенко
Артисты балета и оркестр Большого театра России, дирижёр — Павел Сорокин
Описание: Одноактный балет по мотивам одноименной новеллы П. Мериме. Солдат Хозе поражён эффектностью и соблазнительностью арестованной цыганки Кармен. Охваченный страстью, Хозе ради возлюбленной нарушает служебный долг, бросает службу. Они вместе и счастливы. Однако, взаимоотношения героев предопределены Роком: душа Кармен не знает постоянства. Она увлекается Тореро. Хозе, который не в силах смириться с изменой, убивает Кармен.

Дополнительная информация

Этот балет был поставлен хореографом Альберто Алонсо персонально для Майи Плисецкой. Его премьера состоялась 20 апреля 1967 г. В тот день в главных партиях выступили: Кармен - Майя Плисецкая, Хозе - Николай Фадеечев, Тореро - Сергей Радченко, Коррехидор - Александр Лавренюк, Рок - Наталья Касаткина. Спектакль продержался в репертуаре Большого театра вплоть до 1987 г. За эти годы кроме Майи Плисецкой главную партию исполняли Лойпа Араухо (1975) и Алисия Алонсо (1979). 18 ноября 2005 г. балет был возобновлён. 17 июня 2007 г. в партии Кармен выступила прима-балерина Мариинского театра Ульяна Лопаткина. В этот вечер её партнёрами стали: Хозе - солист театра балета Бориса Эйфмана Иван Козлов, Тореро - Артём Шпилевский, Коррехидор - Ринат Арифулин, Рок - Наталья Выскубенко. Именно этот спектакль и представлен в данном релизе.
Семпл: https://www.sendspace.com/file/mqv0tp
Качество видео: съёмка студии театра
Формат видео: DVDVideo
Видео кодек: MPEG2
Аудио кодек: AC3
Видео: PAL, 720x576, 25 fps, 7420 kbps variable
Аудио: AC3 Dolby Digital, 256 kbps, 48 kHz, 2/0 (L,R) ch

MediaInfo

Общее
Полное имя : ... \Carmen, Lopatkina - DVD\VIDEO_TS\VTS_01_1.VOB
Формат : MPEG-PS
Размер файла : 1024 Мбайт
Продолжительность : 18 м.
Режим общего битрейта : Переменный
Общий поток : 7837 Кбит/сек
Видео
Идентификатор : 224 (0xE0)
Формат : MPEG Video
Версия формата : Version 2
Профиль формата : Main@Main
Параметр BVOP формата : Да
Параметр матрицы формата : Выборочная
Параметр GOP формата : M=3, N=15
Format_Settings_PictureStructure : Frame
Продолжительность : 18 м.
Вид битрейта : Переменный
Битрейт : 7425 Кбит/сек
Максимальный битрейт : 9641 Кбит/сек
Ширина : 720 пикселей
Высота : 576 пикселей
Соотношение сторон : 4:3
Частота кадров : 25,000 кадров/сек
Стандарт вещания : PAL
Цветовое пространство : YUV
Субдискретизация насыщенности : 4:2:0
Битовая глубина : 8 бит
Тип развёртки : Чересстрочная
Порядок развёртки : Верхнее поле первое
Метод сжатия : С потерями
Бит/(Пиксели*Кадры) : 0.716
Временной код первого кадра : 00:00:00:00
Оригинал временного кода : Group of pictures header
Размер потока : 970 Мбайт (95%)
Аудио
Идентификатор : 189 (0xBD)-128 (0x80)
Формат : AC-3
Формат/Информация : Audio Coding 3
Расширение режима : CM (complete main)
Параметр Endianness формата : Big
Режим смешивания : DVD-Video
Продолжительность : 18 м.
Вид битрейта : Постоянный
Битрейт : 256 Кбит/сек
Каналы : 2 канала
Расположение каналов : Front: L R
Частота : 48,0 КГц
Битовая глубина : 16 бит
Метод сжатия : С потерями
Задержка видео : -16 мс.
Размер потока : 33,4 Мбайт (3%)
Меню
Общее
Полное имя : ... \Carmen, Lopatkina - DVD\VIDEO_TS\VTS_01_2.VOB
Формат : MPEG-PS
Размер файла : 1024 Мбайт
Продолжительность : 18 м.
Режим общего битрейта : Переменный
Общий поток : 7779 Кбит/сек
Видео
Идентификатор : 224 (0xE0)
Формат : MPEG Video
Версия формата : Version 2
Профиль формата : Main@Main
Параметр BVOP формата : Да
Параметр матрицы формата : Выборочная
Параметр GOP формата : M=3, N=15
Format_Settings_PictureStructure : Frame
Продолжительность : 18 м.
Вид битрейта : Переменный
Битрейт : 7368 Кбит/сек
Максимальный битрейт : 9641 Кбит/сек
Ширина : 720 пикселей
Высота : 576 пикселей
Соотношение сторон : 4:3
Частота кадров : 25,000 кадров/сек
Стандарт вещания : PAL
Цветовое пространство : YUV
Субдискретизация насыщенности : 4:2:0
Битовая глубина : 8 бит
Тип развёртки : Чересстрочная
Порядок развёртки : Верхнее поле первое
Метод сжатия : С потерями
Бит/(Пиксели*Кадры) : 0.711
Временной код первого кадра : 00:18:16:03
Оригинал временного кода : Group of pictures header
Размер потока : 970 Мбайт (95%)
Аудио
Идентификатор : 189 (0xBD)-128 (0x80)
Формат : AC-3
Формат/Информация : Audio Coding 3
Расширение режима : CM (complete main)
Параметр Endianness формата : Big
Режим смешивания : DVD-Video
Продолжительность : 18 м.
Вид битрейта : Постоянный
Битрейт : 256 Кбит/сек
Каналы : 2 канала
Расположение каналов : Front: L R
Частота : 48,0 КГц
Битовая глубина : 16 бит
Метод сжатия : С потерями
Задержка видео : -344 мс.
Размер потока : 33,7 Мбайт (3%)
Меню
Общее
Полное имя : ... \Carmen, Lopatkina - DVD\VIDEO_TS\VTS_01_3.VOB
Формат : MPEG-PS
Размер файла : 800 Мбайт
Продолжительность : 14 м.
Режим общего битрейта : Переменный
Общий поток : 7897 Кбит/сек
Видео
Идентификатор : 224 (0xE0)
Формат : MPEG Video
Версия формата : Version 2
Профиль формата : Main@Main
Параметр BVOP формата : Да
Параметр матрицы формата : Выборочная
Параметр GOP формата : M=3, N=15
Format_Settings_PictureStructure : Frame
Продолжительность : 14 м.
Вид битрейта : Переменный
Битрейт : 7484 Кбит/сек
Максимальный битрейт : 9641 Кбит/сек
Ширина : 720 пикселей
Высота : 576 пикселей
Соотношение сторон : 4:3
Частота кадров : 25,000 кадров/сек
Стандарт вещания : PAL
Цветовое пространство : YUV
Субдискретизация насыщенности : 4:2:0
Битовая глубина : 8 бит
Тип развёртки : Чересстрочная
Порядок развёртки : Верхнее поле первое
Метод сжатия : С потерями
Бит/(Пиксели*Кадры) : 0.722
Временной код первого кадра : 00:36:40:15
Оригинал временного кода : Group of pictures header
Размер потока : 758 Мбайт (95%)
Аудио
Идентификатор : 189 (0xBD)-128 (0x80)
Формат : AC-3
Формат/Информация : Audio Coding 3
Расширение режима : CM (complete main)
Параметр Endianness формата : Big
Режим смешивания : DVD-Video
Продолжительность : 14 м.
Вид битрейта : Постоянный
Битрейт : 256 Кбит/сек
Каналы : 2 канала
Расположение каналов : Front: L R
Частота : 48,0 КГц
Битовая глубина : 16 бит
Метод сжатия : С потерями
Задержка видео : -504 мс.
Размер потока : 25,9 Мбайт (3%)

Скриншот с названием постановки

Внимание!

Диск с представляемой записью - неофициальный. Наличие логотипа Большого театра позволяет предположить, что запись осуществлена студией театра. Насколько удалось понять из просмотра, при записи использовались две параллельно стоящие камеры, видимо, профессиональные. Однако, должен подчеркнуть, что звук записан откровенно плохо, с "перегрузками", напоминающими звуковые эффекты, которые возникают, если записывешь при "зашкаливающем" уровне записи. Соответственно, как только громкость превышает некоторый предел, появляется дребезжащий фон. Один из таких моментов полностью вошёл в предлагаемый выше сэмпл.
Для удобства навигации запись была снабжена несложным меню посредством программы NeroVision. Работа меню протестирована в двух аппаратных (Sony RDR-HX 1020, Novex ND-9102) и четырёх программных плеерах (Media Player Classic, GOM Player, VLC media player, Nero ShowTime). Все программные плееры уверенно откликались на команды компьютерной мыши и/или на манипуляции кнопками "стрелка" клавиатуры. Аппаратные плееры для входа в меню требовали нажатия кнопки "Menu" (или её аналогов - "Title" и проч.) на пульте ДУ. Ни видео, ни звук при изготовлении меню не перекодировались.
В формате "AVI" запись спектакля раздаётся на трекере "Рутрекер" (743 MB).

[Цитировать]

admin, это - не официальный ДВД, не стоит его переносить в этот раздел. Иначе этот раздел раньше ли, позже ли наполнится разными ТВ-рипами в формате ДВД-Видео, что неправильно. Здесь качество записи очень неплохое, но это не фабричный ДВД. Этому место в разделе "Видео". ИМХО, по моему глубокому убеждению.


Показать сообщения:    

Текущее время: 03-Дек 20:46

Часовой пояс: UTC + 3


Вы не можете начинать темы
Вы не можете отвечать на сообщения
Вы не можете редактировать свои сообщения
Вы не можете удалять свои сообщения
Вы не можете голосовать в опросах
Вы не можете прикреплять файлы к сообщениям
Вы не можете скачивать файлы