Спартак (Корсунцев / Кондаурова / Степанова / Сергеев) - А.И. Хачатурян / Spartacus ( Korsuntsev / Kondaurova / Stepanova / Sergeev ) - A. Khachaturian (Л.В. Якобсон / L. Yakobson ) [2011, балет, любительская съемка] Мариинский театр


 

[Цитировать]

Спартак ( Корсунцев / Кондаурова / Степанова / Сергеев ) - А.И. Хачатурян / Spartacus (Korsuntsev / Kondaurova / Stepanova / Sergeev )
Название театра: Мариинский театр
Страна: Российская Федерация
Жанр: балет
Год выпуска: 2011
Продолжительность: 2:09:46
Хореограф: Л.В. Якобсон
Либретто: Николай Волков
Декорации и костюмы: Валентина Ходасевич
Балетмейстер возобновления: Вячеслав Хомяков
Художники по возобновлению декораций: Батожан Дашицыренов, Сергей Грачев
Художник по возобновлению костюмов: Ирина Коровина
Художник по свету: Александр Наумов
Дирижёр: Карен Дургарян, главный дирижёр Армянского государственного театра оперы и балета. Оркестр Мариинского театра.
В ролях:
Спартак - Данила Корсунцев
Фригия - Екатерина Кондаурова
Эгина - Юлия Степанова
Гармодий - Александр Сергеев
Красс - Николай Наумов

Описание

КРАТКОЕ СОДЕРЖАНИЕ
Первое действие
Триумф Рима
Римский полководец Красc с победой возвращается из похода во Фракию. Ликующая толпа приветствует легионеров. В золотую колесницу Красса впряжены пленные рабы. Среди них – Спартак, его жена Фригия и Гармодий. Римская знать – патриции, сенаторы склоняются перед полководцем. Красса встречает куртизанка Эгина.
Рынок рабов
На рынок рабов приходит владелец школы гладиаторов Лентулл Батиат. Его внимание привлекают Спартак и скованный с ним одной цепью Гармодий. Лентулл Батиат покупает обоих. Горестна минута расставания Фригии и Спартака. На богато убранных носилках вносят Эгину. Куртизанка осматривает рабов, ее выбор останавливается на Гармодии, но он уже продан. Эгина покупает Фригию.
Цирк
Возбужденная предстоящим зрелищем, толпа ждет начала представления. В центре амфитеатра – ложа Красса и Эгины. В первом бою гладиаторов сражаются галл, нумидиец и африканец. Погибает галл, раненый нумидиец просит даровать ему жизнь, но зрители требуют убить его. Унесены мертвые тела. В бой вступают ретиарий и мирмиллон – «рыбак» и «рыбка». Умирающий ретиарий проклинает Рим. Затем на арене появляются два отряда гладиаторов: самниты и фракийцы. Закипает яростный бой. Побеждает отряд под предводительством Спартака. Толпа восторженно рукоплещет.
Второе действие
Сатурналии
Прячась от ночного дозора, появляется Спартак. Фригия рассказывает ему о своей жизни в рабстве. Спартак уславливается с друзьями-гладиаторами о тайной встрече. Это замечает Эгина. Желая раскрыть их тайну, она увлекает за собой Гармодия.
Народ славит бога Сатурна. Из дворца на носилках выносят Красса. Один из рабов, несущих носилки, споткнулся. Вольноотпущенник Красса, по приказу хозяина, убивает его. Спартак призывает своих сподвижников к восстанию. Верность делу борьбы за свободу они скрепляют клятвой.
Восстание гладиаторов
В каменной тюрьме томятся гладиаторы. Их гнетут позорные оковы. Лучше принять смерть на поле брани, чем на арене цирка в угоду толпе, жаждущей крови.И цепи разбиты. Но на сторожевой стене уже звучит сигнал тревоги. Гладиаторы вступают в бой со стражей. Спартак открывает ворота и увлекает за собой восставших.
Третье действие
Лагерь Спартака
Победу за победой одерживают войска Спартака. Теперь уже римляне склоняют свои знамена перед вождем восставших рабов. В арьергарде войск Спартака, среди пленных центурионов и гетер, находится Эгина. Она разыскивает Гармодия и приводит его в палатку военачальников, где пляшут гетеры.
Неожиданно появляется Спартак. К неудовольствию военачальников он приказывает немедленно удалить из лагеря гетер. Но Эгина остается. Спартак приказывает удалиться и ей. Гармодий протестует. Начинается ссора. Конфликт разрастается. Группа недовольных военачальников вместе со своими отрядами покидают лагерь. Увлекаемый Эгиной, вместе с ними уходит и Гармодий. Со Спартаком остаются верные ему сподвижники.
Пир у Красса
На вилле Красса пир. Эгина сообщает Крассу, что она привела Гармодия, поссорившегося со Спартаком, и рассказывает о расколе среди восставших рабов.
Красс отдает приказ уничтожить лагерь повстанцев, ушедших от Спартака. Фригия посылает раба к Спартаку – предупредить об этом. Но тщетно.
Пирующий Красс велит привести Гармодия. Широко распахиваются пурпурные занавеси, и Гармодий видит распятые на крестах тела гладиаторов, изменивших Спартаку. Гармодию открывается предательство Эгины, он порывается убить ее, но легионеры закалывают юношу.
Красс и Эгина незаметно исчезают. На виллу врываются воины Спартака.
Гибель Спартака
Фригия томится предчувствием катастрофы. Перед решающим сражением она прощается со Спартаком. Окруженные войсками Красса, в жестокой битве гибнут Спартак и его воины, верные до конца клятве бороться за свободу. Трубят сигналы отбоя. Римские войска уходят. Ночью Фригия отыскивает тело Спартака и оплакивает погибшего мужа.

Дополнительная информация

Первая постановка балета "Спартак" - Ленинградский академический театр оперы и балет имени С.М.Кирова (в настоящее время - Мариинский театр), хореография Л.В. Якобсона. Премьера состоялась 27.12.1956.
В 2010 г. в Мариинском театре спектакль в хореграфии Л.В. Якобсона был возобновлён. Премьера состоялась 1 июля 2010 г. Главные партии исполнили: Спартак - Игорь Зеленский, Фригия - Виктория Терешкина, Эгина - Екатерина Кондаурова, Гармодий - Юрий Смекалов. Спектакль, представленный в данном релизе, состоялся 16 января 2011 г.
Качество видео: любительская съемка
Формат видео: DVDVideo
Видео кодек: MPEG2
Аудио кодек: AC3
Видео: PAL, 720x576, 4225 kbps variable, 25 fps
Аудио: AC3 Dolby Digital, 256 kbps, 48 kHz, 2/0 (L,R) ch

MediaInfo

Общее
Полное имя : ... \Spartacus-Yakobson-DVD\VIDEO_TS\VTS_01_1.VOB
Формат : MPEG-PS
Размер файла : 970 Мбайт
Продолжительность : 29 м.
Режим общего битрейта : Переменный
Общий поток : 4591 Кбит/сек
Видео
Идентификатор : 224 (0xE0)
Формат : MPEG Video
Версия формата : Version 2
Профиль формата : Main@Main
Параметр BVOP формата : Да
Параметр матрицы формата : Выборочная
Параметр GOP формата : Variable
Format_Settings_PictureStructure : Frame
Продолжительность : 29 м.
Вид битрейта : Переменный
Битрейт : 4244 Кбит/сек
Максимальный битрейт : 9641 Кбит/сек
Ширина : 720 пикселей
Высота : 576 пикселей
Соотношение сторон : 4:3
Частота кадров : 25,000 кадров/сек
Стандарт вещания : PAL
Цветовое пространство : YUV
Субдискретизация насыщенности : 4:2:0
Битовая глубина : 8 бит
Тип развёртки : Чересстрочная
Порядок развёртки : Верхнее поле первое
Метод сжатия : С потерями
Бит/(Пиксели*Кадры) : 0.409
Временной код первого кадра : 00:00:00:00
Оригинал временного кода : Group of pictures header
Размер потока : 897 Мбайт (92%)
Основные цвета : BT.601 PAL
Характеристики трансфера : BT.470 System B, BT.470 System G
Коэффициенты матрицы : BT.601
Аудио
Идентификатор : 189 (0xBD)-128 (0x80)
Формат : AC-3
Формат/Информация : Audio Coding 3
Расширение режима : CM (complete main)
Параметр Endianness формата : Big
Режим смешивания : DVD-Video
Продолжительность : 29 м.
Вид битрейта : Постоянный
Битрейт : 256 Кбит/сек
Каналы : 2 канала
Расположение каналов : Front: L R
Частота : 48,0 КГц
Битовая глубина : 16 бит
Метод сжатия : С потерями
Задержка видео : 8 мс.
Размер потока : 54,1 Мбайт (6%)
Общее
Полное имя : ... \Spartacus-Yakobson-DVD\VIDEO_TS\VTS_02_1.VOB
Формат : MPEG-PS
Размер файла : 879 Мбайт
Продолжительность : 26 м.
Режим общего битрейта : Переменный
Общий поток : 4616 Кбит/сек
Видео
Идентификатор : 224 (0xE0)
Формат : MPEG Video
Версия формата : Version 2
Профиль формата : Main@Main
Параметр BVOP формата : Да
Параметр матрицы формата : Выборочная
Параметр GOP формата : Variable
Format_Settings_PictureStructure : Frame
Продолжительность : 26 м.
Вид битрейта : Переменный
Битрейт : 4268 Кбит/сек
Максимальный битрейт : 9641 Кбит/сек
Ширина : 720 пикселей
Высота : 576 пикселей
Соотношение сторон : 4:3
Частота кадров : 25,000 кадров/сек
Стандарт вещания : PAL
Цветовое пространство : YUV
Субдискретизация насыщенности : 4:2:0
Битовая глубина : 8 бит
Тип развёртки : Чересстрочная
Порядок развёртки : Верхнее поле первое
Метод сжатия : С потерями
Бит/(Пиксели*Кадры) : 0.412
Временной код первого кадра : 00:00:00:00
Оригинал временного кода : Group of pictures header
Размер потока : 812 Мбайт (92%)
Основные цвета : BT.601 PAL
Характеристики трансфера : BT.470 System B, BT.470 System G
Коэффициенты матрицы : BT.601
Аудио
Идентификатор : 189 (0xBD)-128 (0x80)
Формат : AC-3
Формат/Информация : Audio Coding 3
Расширение режима : CM (complete main)
Параметр Endianness формата : Big
Режим смешивания : DVD-Video
Продолжительность : 26 м.
Вид битрейта : Постоянный
Битрейт : 256 Кбит/сек
Каналы : 2 канала
Расположение каналов : Front: L R
Частота : 48,0 КГц
Битовая глубина : 16 бит
Метод сжатия : С потерями
Задержка видео : 8 мс.
Размер потока : 48,7 Мбайт (6%)
Общее
Полное имя : ... \Spartacus-Yakobson-DVD\VIDEO_TS\VTS_03_1.VOB
Формат : MPEG-PS
Размер файла : 1024 Мбайт
Продолжительность : 31 м.
Режим общего битрейта : Переменный
Общий поток : 4605 Кбит/сек
Видео
Идентификатор : 224 (0xE0)
Формат : MPEG Video
Версия формата : Version 2
Профиль формата : Main@Main
Параметр BVOP формата : Да
Параметр матрицы формата : Выборочная
Параметр GOP формата : M=3, N=12
Format_Settings_PictureStructure : Frame
Продолжительность : 31 м.
Вид битрейта : Переменный
Битрейт : 4257 Кбит/сек
Максимальный битрейт : 9641 Кбит/сек
Ширина : 720 пикселей
Высота : 576 пикселей
Соотношение сторон : 4:3
Частота кадров : 25,000 кадров/сек
Стандарт вещания : PAL
Цветовое пространство : YUV
Субдискретизация насыщенности : 4:2:0
Битовая глубина : 8 бит
Тип развёртки : Чересстрочная
Порядок развёртки : Верхнее поле первое
Метод сжатия : С потерями
Бит/(Пиксели*Кадры) : 0.411
Временной код первого кадра : 00:00:00:00
Оригинал временного кода : Group of pictures header
Размер потока : 947 Мбайт (92%)
Основные цвета : BT.601 PAL
Характеристики трансфера : BT.470 System B, BT.470 System G
Коэффициенты матрицы : BT.601
Аудио
Идентификатор : 189 (0xBD)-128 (0x80)
Формат : AC-3
Формат/Информация : Audio Coding 3
Расширение режима : CM (complete main)
Параметр Endianness формата : Big
Режим смешивания : DVD-Video
Продолжительность : 31 м.
Вид битрейта : Постоянный
Битрейт : 256 Кбит/сек
Каналы : 2 канала
Расположение каналов : Front: L R
Частота : 48,0 КГц
Битовая глубина : 16 бит
Метод сжатия : С потерями
Задержка видео : 8 мс.
Размер потока : 56,9 Мбайт (6%)
Общее
Полное имя : ... \Spartacus-Yakobson-DVD\VIDEO_TS\VTS_03_2.VOB
Формат : MPEG-PS
Размер файла : 1024 Мбайт
Продолжительность : 32 м.
Режим общего битрейта : Переменный
Общий поток : 4442 Кбит/сек
Видео
Идентификатор : 224 (0xE0)
Формат : MPEG Video
Версия формата : Version 2
Профиль формата : Main@Main
Параметр BVOP формата : Да
Параметр матрицы формата : Выборочная
Параметр GOP формата : Variable
Format_Settings_PictureStructure : Frame
Продолжительность : 32 м.
Вид битрейта : Переменный
Битрейт : 4097 Кбит/сек
Максимальный битрейт : 9641 Кбит/сек
Ширина : 720 пикселей
Высота : 576 пикселей
Соотношение сторон : 4:3
Частота кадров : 25,000 кадров/сек
Стандарт вещания : PAL
Цветовое пространство : YUV
Субдискретизация насыщенности : 4:2:0
Битовая глубина : 8 бит
Тип развёртки : Чересстрочная
Порядок развёртки : Верхнее поле первое
Метод сжатия : С потерями
Бит/(Пиксели*Кадры) : 0.395
Временной код первого кадра : 00:31:05:17
Оригинал временного кода : Group of pictures header
Размер потока : 944 Мбайт (92%)
Основные цвета : BT.601 PAL
Характеристики трансфера : BT.470 System B, BT.470 System G
Коэффициенты матрицы : BT.601
Аудио
Идентификатор : 189 (0xBD)-128 (0x80)
Формат : AC-3
Формат/Информация : Audio Coding 3
Расширение режима : CM (complete main)
Параметр Endianness формата : Big
Режим смешивания : DVD-Video
Продолжительность : 32 м.
Вид битрейта : Постоянный
Битрейт : 256 Кбит/сек
Каналы : 2 канала
Расположение каналов : Front: L R
Частота : 48,0 КГц
Битовая глубина : 16 бит
Метод сжатия : С потерями
Задержка видео : -920 мс.
Размер потока : 59,0 Мбайт (6%)
Общее
Полное имя : ... \Spartacus-Yakobson-DVD\VIDEO_TS\VTS_03_3.VOB
Формат : MPEG-PS
Размер файла : 347 Мбайт
Продолжительность : 10 м.
Режим общего битрейта : Переменный
Общий поток : 4707 Кбит/сек
Видео
Идентификатор : 224 (0xE0)
Формат : MPEG Video
Версия формата : Version 2
Профиль формата : Main@Main
Параметр BVOP формата : Да
Параметр матрицы формата : Выборочная
Параметр GOP формата : Variable
Format_Settings_PictureStructure : Frame
Продолжительность : 10 м.
Вид битрейта : Переменный
Битрейт : 4357 Кбит/сек
Максимальный битрейт : 9641 Кбит/сек
Ширина : 720 пикселей
Высота : 576 пикселей
Соотношение сторон : 4:3
Частота кадров : 25,000 кадров/сек
Стандарт вещания : PAL
Цветовое пространство : YUV
Субдискретизация насыщенности : 4:2:0
Битовая глубина : 8 бит
Тип развёртки : Чересстрочная
Порядок развёртки : Верхнее поле первое
Метод сжатия : С потерями
Бит/(Пиксели*Кадры) : 0.420
Временной код первого кадра : 01:03:19:04
Оригинал временного кода : Group of pictures header
Размер потока : 321 Мбайт (93%)
Основные цвета : BT.601 PAL
Характеристики трансфера : BT.470 System B, BT.470 System G
Коэффициенты матрицы : BT.601
Аудио
Идентификатор : 189 (0xBD)-128 (0x80)
Формат : AC-3
Формат/Информация : Audio Coding 3
Расширение режима : CM (complete main)
Параметр Endianness формата : Big
Режим смешивания : DVD-Video
Продолжительность : 10 м.
Вид битрейта : Постоянный
Битрейт : 256 Кбит/сек
Каналы : 2 канала
Расположение каналов : Front: L R
Частота : 48,0 КГц
Битовая глубина : 16 бит
Метод сжатия : С потерями
Задержка видео : -392 мс.
Размер потока : 18,9 Мбайт (5%)

Скриншот с названием постановки

Диск с записью этого спектакля в формате "ДВД-Видео" был приобретён на одном из рынков. Для удобства навигации запись была снабжена несложным меню посредством программы NeroVision. Работа меню протестирована в двух аппаратных плеерах (Sony RDR-HX 1020, Novex ND-9102) и четырёх программных плеерах (Media Player Classic, GOM Player, VLC media player, Nero ShowTime). Все программные плееры уверенно откликались на команды компьютерной мыши и/или на манипуляции кнопками "стрелка" клавиатуры. Аппаратные плееры для входа в меню требовали нажатия кнопки "Menu" (или её аналогов - "Title" и проч.) на пульте ДУ.
В формате "AVI" запись спектакля раздаётся в этой теме (2,18 GB).
Выше "Качество видео" обозначено как "любительская съёмка" - весь спектакль снят одной камерой, не всегда отчётливо звучит звук (видимо, из-за того, что записан на встроенные микрофоны видеокамеры). Однако, качество картинки вполне приличное, запись весьма напоминает рабочую техническую запись театра. 

Топик был перенесен из форума Балеты (Video) в форум Балеты (DVD и HD)
admin

[Цитировать]

admin, это - не официальный ДВД, не стоит его переносить. Иначе раздел "Балеты (ДВД)" раньше ли, позже ли наполнится разными ТВ-рипами в формате ДВД-Видео, что неправильно. Здесь качество записи очень неплохое, но это не фабричный ДВД. Этому место в разделе "Видео". ИМХО, по моему глубокому убеждению. А то ТВ-рипы (и прочее) в формате ДВД-Видео под видом ДВД5, достали, должен отметить. Они, безусловно, должны быть, но на своём месте, в своём разделе. А ДВД-5 это не только стркутура диска, это - качественная запись с нескольких камер, качественный звук.
Пожалуйста, admin, всему своё место.

[Цитировать]

Rezach, есть ли смысл тогда разделять на двд и видео? возможно стоит объединить эти разделы в один. потому что на мой взгляд именно структура двд решает, а не чем записано и как.

[Цитировать]

Есть смысл, admin.
Дело не в структуре. Принципиально - качество видео. Одно дело - официальный ДВД, повторюсь, записанный с разных камер профессионалами, профессионально записанный звук, пусть даже и в формате АС3. Качество не ниже "хорошо с минусом". Другое - ТВ-рипы, любительские записи, пусть даже в формате ДВД-Видео, с необходимой структурой. Давайте представим себе, можно ведь поставить любительскую камеру перед экраном телевизора, записать на неё балет или оперу, потом придать сему шедевру видеорегистрации формат ДВД-Видео, и это, что, будет ДВД-5?? Нет. Это будет тряпочная экранка в формате ДВД. Сознательно привел такой утрированный пример. Но раздел "ДВД" должен содержать контент профессионального качества. Всё остальное, как бы хорошо записано не было - в "Видео". Меня признаться, допекли ТВ-рипы с разных трекеров, подаваемые под видом ДВД-5. Очень строго это отслеживают модераторы Рутрекера на киношных форумах, там всегда спокойно скачиваешь, если написано "ДВД", то это именно ДВД. И это очень удобно. А наоборот - бедлам, который очень неудобен. Полагаю, так правильно.

[Цитировать]

Rezach, хорошо. Здесь я с вами полностью согласен.

[Цитировать]

Кстати, admin, лет несколько назад всплывала тема об оригинальном "Спартаке" Якобсона. Как Вам кажется, это ещё потенциально вероятно, или, что называется, "поезд ушёл"?

[Цитировать]

Rezach,
для меня "Спартак" Якобсона пока еще актуален - был, но найти не могу!
Будет место, скачаю, но надо срочно ехать на рынок за очередным накопителем - всё имеющееся переполнено под завязку, некуда положить Конька - странно, но этот диск почему-то не купила.

[Цитировать]

Rezach, уже не актуально. потому что я в гитис не хожу уже и скорей всего педагог там больше не работает)


Показать сообщения:    

Текущее время: 06-Дек 19:04

Часовой пояс: UTC + 3


Вы не можете начинать темы
Вы не можете отвечать на сообщения
Вы не можете редактировать свои сообщения
Вы не можете удалять свои сообщения
Вы не можете голосовать в опросах
Вы не можете прикреплять файлы к сообщениям
Вы не можете скачивать файлы