Спартак (Хиткоут / Певейн) - А.И. Хачатурян / Spartacus (Heathcote / Pavane) - Aram Khachaturian (Ласло Шереги / Laszlo Seregi) [1993, Австралия, балет, DVD5] Австралийский балет "Булл Бэли Гала" / "Bull Ballet Gala"


 

[Цитировать]

Спартак ( Хиткоут / Певейн ) - А.И. Хачатурян / Spartacus ( Heathcote / Pavane ) - Aram Khachaturian
Название театра: Австралийский балет "Булл Бэли Гала" / Australian ballet "Bull Ballet Gala"
Страна: Австралия
Жанр: балет
Год выпуска: 1993
Продолжительность: 2:00:17
Хореограф: Ласло Шереги / Laszlo Seregi
Сценарий: Габор Форрай / Gabor Forray
Художник по костюмам: Тивидар Марк / Tividar Mark
Художник по свету: Уильям Эйкерс / William Akers
В ролях:
Спартак — Стивен Хиткоут / Steven (Stephen) Heathcote
Флавия — Лайза Певейн / Lisa Pavane
Красс — Грег Хорсман / Greg Horsman
Гэд, гладитор из Иудеи — Адам Маршан / Adam Marchant
Эномай, гладиатор из Африки — Роберт Маршалл / Robert Marshall
Крикс, гладиатор из Фракии — Стивен Морган / Stephen Morgante
Юлия и Клавдия, подруги Красса — Ульрика Литтон / Ulrike Litton и Фиона Тонкин / Fiona Tonkin
Ланиста Батиат — Марк Бринкли / Mark Brinkley
Танцовщица — Миранда Коней / Miranda Coney
Канус — Стивен Бэйнс / Stephen Baynes
Артисты Австралийского балета "Bull Ballet Gala"
Государственный оркестр штата Виктория, дирижёр Ормсби Уилкинс / Ormsby Wilkins

Описание

К сожалению, запись спектакля не сопровождена каким-либо кратким изложением сюжета, не удалось мне найти его и в сети. Упоминается лишь, что спектакль создан на основе оригинального либретто Ласло Шереги, написанного по мотивам повести Говарда Фаста (Howard Fast), которая явилась также «исходным материалом» для сценария одноимённого фильма Стэнли Кубрика с Кирком Дугласом в главной роли. Действително, некоторые сцены спектакля повторяют кадры фильма почти «дословно».
Больше по сюжету спектакля мне на данный момент сообщить нечего, а нести «отсебятину», описывая, как лично я воспринял перепетии действия, не хочется. Соответственно, если кому-нибудь удастся каким-либо образом найти либретто к этой постановке, прошу сообщить, рад буду дополнить оформление раздачи упорядоченным описанием.

Дополнительная информация

Первая постановка балета "Спартак" - Ленинградский академический театр оперы и балет имени С.М.Кирова (в настоящее время - Мариинский театр), хореография Л.В. Якобсона. Премьера состоялась 27.12.1956.
Хореографом Ласло Шереги балет "Спартак" впервые был поставлен в 1968 г. для Государственного балета Венгрии. В 1978 г. он поставил этот балет с труппой Австралийского балета. Спектакль, представленный в данном релизе, состоялся в 1993 г.
Качество видео: DVD5
Формат видео: DVDVideo
Видео кодек: MPEG2
Аудио кодек: PCM
Видео: NTSC, 720x480, 3544 kbps variable, 29,97 fps
Аудио: PCM, 1536 kbps, 48 kHz, 2/0 (L,R) ch

MediaInfo

Общее
Полное имя : ... \Seregi's Australian Spartacus-DVD\VIDEO_TS\VIDEO_TS.BUP
Формат : DVD Video
Профиль формата : Menu
Размер файла : 6,00 Кбайт
Режим общего битрейта : Переменный
Видео
Идентификатор : 224 (0xE0)
Формат : MPEG Video
Версия формата : Version 1
Вид битрейта : Переменный
Ширина : 720 пикселей
Высота : 480 пикселей
Соотношение сторон : 4:3
Частота кадров : 29,970 кадров/сек
Стандарт вещания : NTSC
Метод сжатия : С потерями
Общее
Полное имя : ... \Seregi's Australian Spartacus-DVD\VIDEO_TS\VIDEO_TS.IFO
Формат : DVD Video
Профиль формата : Menu
Размер файла : 6,00 Кбайт
Режим общего битрейта : Переменный
Видео
Идентификатор : 224 (0xE0)
Формат : MPEG Video
Версия формата : Version 1
Вид битрейта : Переменный
Ширина : 720 пикселей
Высота : 480 пикселей
Соотношение сторон : 4:3
Частота кадров : 29,970 кадров/сек
Стандарт вещания : NTSC
Метод сжатия : С потерями
Общее
Полное имя : ... \Seregi's Australian Spartacus-DVD\VIDEO_TS\VTS_01_0.BUP
Формат : DVD Video
Профиль формата : Program
Размер файла : 74,0 Кбайт
Продолжительность : 2 ч. 0 м.
Режим общего битрейта : Переменный
Общий поток : 84 бит/сек
Видео
Идентификатор : 224 (0xE0)
Формат : MPEG Video
Версия формата : Version 2
Продолжительность : 2 ч. 0 м.
Вид битрейта : Переменный
Ширина : 720 пикселей
Высота : 480 пикселей
Соотношение сторон : 4:3
Частота кадров : 29,970 кадров/сек
Стандарт вещания : NTSC
Метод сжатия : С потерями
Аудио
Идентификатор : 0 (0x0)
Формат : PCM
Продолжительность : 2 ч. 0 м.
Каналы : 2 канала
Частота : 48,0 КГц
Язык : English
Меню
Продолжительность : 2 ч. 0 м.
00:00:00.000 : Chapter 1
00:01:50.000 : Chapter 2
00:11:49.500 : Chapter 3
00:15:00.000 : Chapter 4
00:25:47.500 : Chapter 5
00:34:15.000 : Chapter 6
00:49:11.500 : Chapter 7
01:00:28.500 : Chapter 8
01:06:58.000 : Chapter 9
01:27:37.500 : Chapter 10
01:32:00.000 : Chapter 11
01:54:42.500 : Chapter 12
List (Audio) : 0
Общее
Полное имя : ... \Seregi's Australian Spartacus-DVD\VIDEO_TS\VTS_01_0.IFO
Формат : DVD Video
Профиль формата : Program
Размер файла : 74,0 Кбайт
Продолжительность : 2 ч. 0 м.
Режим общего битрейта : Переменный
Общий поток : 84 бит/сек
Видео
Идентификатор : 224 (0xE0)
Формат : MPEG Video
Версия формата : Version 2
Продолжительность : 2 ч. 0 м.
Вид битрейта : Переменный
Ширина : 720 пикселей
Высота : 480 пикселей
Соотношение сторон : 4:3
Частота кадров : 29,970 кадров/сек
Стандарт вещания : NTSC
Метод сжатия : С потерями
Аудио
Идентификатор : 0 (0x0)
Формат : PCM
Продолжительность : 2 ч. 0 м.
Каналы : 2 канала
Частота : 48,0 КГц
Язык : English
Меню
Продолжительность : 2 ч. 0 м.
00:00:00.000 : Chapter 1
00:01:50.000 : Chapter 2
00:11:49.500 : Chapter 3
00:15:00.000 : Chapter 4
00:25:47.500 : Chapter 5
00:34:15.000 : Chapter 6
00:49:11.500 : Chapter 7
01:00:28.500 : Chapter 8
01:06:58.000 : Chapter 9
01:27:37.500 : Chapter 10
01:32:00.000 : Chapter 11
01:54:42.500 : Chapter 12
List (Audio) : 0
Общее
Полное имя : ... \Seregi's Australian Spartacus-DVD\VIDEO_TS\VTS_01_1.VOB
Формат : MPEG-PS
Размер файла : 1024 Мбайт
Продолжительность : 27 м.
Режим общего битрейта : Переменный
Общий поток : 5209 Кбит/сек
Видео
Идентификатор : 224 (0xE0)
Формат : MPEG Video
Версия формата : Version 2
Профиль формата : Main@Main
Параметр BVOP формата : Да
Параметр матрицы формата : Выборочная
Параметр GOP формата : M=3, N=15
Format_Settings_PictureStructure : Frame
Продолжительность : 27 м.
Вид битрейта : Переменный
Битрейт : 3570 Кбит/сек
Максимальный битрейт : 6000 Кбит/сек
Ширина : 720 пикселей
Высота : 480 пикселей
Соотношение сторон : 4:3
Частота кадров : 29,970 кадров/сек
Стандарт вещания : NTSC
Цветовое пространство : YUV
Субдискретизация насыщенности : 4:2:0
Битовая глубина : 8 бит
Тип развёртки : Чересстрочная
Порядок развёртки : Нижнее поле первое
Метод сжатия : С потерями
Бит/(Пиксели*Кадры) : 0.345
Временной код первого кадра : 00:00:00:00
Оригинал временного кода : Group of pictures header
Размер потока : 702 Мбайт (69%)
Аудио
Идентификатор : 189 (0xBD)-160 (0xA0)
Формат : PCM
Параметр Endianness формата : Big
Параметр Sign формата : Signed
Режим смешивания : DVD-Video
Продолжительность : 27 м.
Вид битрейта : Постоянный
Битрейт : 1536 Кбит/сек
Каналы : 2 канала
Частота : 48,0 КГц
Битовая глубина : 16 бит
Размер потока : 302 Мбайт (29%)
Меню
Общее
Полное имя : ... \Seregi's Australian Spartacus-DVD\VIDEO_TS\VTS_01_2.VOB
Формат : MPEG-PS
Размер файла : 1024 Мбайт
Продолжительность : 27 м.
Режим общего битрейта : Переменный
Общий поток : 5267 Кбит/сек
Видео
Идентификатор : 224 (0xE0)
Формат : MPEG Video
Версия формата : Version 2
Профиль формата : Main@Main
Параметр BVOP формата : Да
Параметр матрицы формата : Выборочная
Параметр GOP формата : M=3, N=15
Format_Settings_PictureStructure : Frame
Продолжительность : 27 м.
Вид битрейта : Переменный
Битрейт : 3626 Кбит/сек
Максимальный битрейт : 6000 Кбит/сек
Ширина : 720 пикселей
Высота : 480 пикселей
Соотношение сторон : 4:3
Частота кадров : 29,970 кадров/сек
Стандарт вещания : NTSC
Цветовое пространство : YUV
Субдискретизация насыщенности : 4:2:0
Битовая глубина : 8 бит
Тип развёртки : Чересстрочная
Порядок развёртки : Нижнее поле первое
Метод сжатия : С потерями
Бит/(Пиксели*Кадры) : 0.350
Временной код первого кадра : 00:27:27:15
Оригинал временного кода : Group of pictures header
Размер потока : 705 Мбайт (69%)
Аудио
Идентификатор : 189 (0xBD)-160 (0xA0)
Формат : PCM
Параметр Endianness формата : Big
Параметр Sign формата : Signed
Режим смешивания : DVD-Video
Продолжительность : 27 м.
Вид битрейта : Постоянный
Битрейт : 1536 Кбит/сек
Каналы : 2 канала
Частота : 48,0 КГц
Битовая глубина : 16 бит
Задержка видео : -611 мс.
Размер потока : 299 Мбайт (29%)
Меню
Общее
Полное имя : ... \Seregi's Australian Spartacus-DVD\VIDEO_TS\VTS_01_3.VOB
Формат : MPEG-PS
Размер файла : 1024 Мбайт
Продолжительность : 26 м.
Режим общего битрейта : Переменный
Общий поток : 5307 Кбит/сек
Видео
Идентификатор : 224 (0xE0)
Формат : MPEG Video
Версия формата : Version 2
Профиль формата : Main@Main
Параметр BVOP формата : Да
Параметр матрицы формата : Выборочная
Параметр GOP формата : M=3, N=15
Format_Settings_PictureStructure : Frame
Продолжительность : 26 м.
Вид битрейта : Переменный
Битрейт : 3666 Кбит/сек
Максимальный битрейт : 6000 Кбит/сек
Ширина : 720 пикселей
Высота : 480 пикселей
Соотношение сторон : 4:3
Частота кадров : 29,970 кадров/сек
Стандарт вещания : NTSC
Цветовое пространство : YUV
Субдискретизация насыщенности : 4:2:0
Битовая глубина : 8 бит
Тип развёртки : Чересстрочная
Порядок развёртки : Нижнее поле первое
Метод сжатия : С потерями
Бит/(Пиксели*Кадры) : 0.354
Временной код первого кадра : 00:54:36:15
Оригинал временного кода : Group of pictures header
Размер потока : 707 Мбайт (69%)
Аудио
Идентификатор : 189 (0xBD)-160 (0xA0)
Формат : PCM
Параметр Endianness формата : Big
Параметр Sign формата : Signed
Режим смешивания : DVD-Video
Продолжительность : 26 м.
Вид битрейта : Постоянный
Битрейт : 1536 Кбит/сек
Каналы : 2 канала
Частота : 48,0 КГц
Битовая глубина : 16 бит
Задержка видео : -315 мс.
Размер потока : 296 Мбайт (29%)
Меню
Общее
Полное имя : ... \Seregi's Australian Spartacus-DVD\VIDEO_TS\VTS_01_4.VOB
Формат : MPEG-PS
Размер файла : 1024 Мбайт
Продолжительность : 28 м.
Режим общего битрейта : Переменный
Общий поток : 5058 Кбит/сек
Видео
Идентификатор : 224 (0xE0)
Формат : MPEG Video
Версия формата : Version 2
Профиль формата : Main@Main
Параметр BVOP формата : Да
Параметр матрицы формата : Выборочная
Параметр GOP формата : M=3, N=15
Format_Settings_PictureStructure : Frame
Продолжительность : 28 м.
Вид битрейта : Переменный
Битрейт : 3422 Кбит/сек
Максимальный битрейт : 6000 Кбит/сек
Ширина : 720 пикселей
Высота : 480 пикселей
Соотношение сторон : 4:3
Частота кадров : 29,970 кадров/сек
Стандарт вещания : NTSC
Цветовое пространство : YUV
Субдискретизация насыщенности : 4:2:0
Битовая глубина : 8 бит
Тип развёртки : Чересстрочная
Порядок развёртки : Нижнее поле первое
Метод сжатия : С потерями
Бит/(Пиксели*Кадры) : 0.330
Временной код первого кадра : 01:21:33:15
Оригинал временного кода : Group of pictures header
Размер потока : 693 Мбайт (68%)
Аудио
Идентификатор : 189 (0xBD)-160 (0xA0)
Формат : PCM
Параметр Endianness формата : Big
Параметр Sign формата : Signed
Режим смешивания : DVD-Video
Продолжительность : 28 м.
Вид битрейта : Постоянный
Битрейт : 1536 Кбит/сек
Каналы : 2 канала
Частота : 48,0 КГц
Битовая глубина : 16 бит
Задержка видео : -504 мс.
Размер потока : 311 Мбайт (30%)
Меню
Общее
Полное имя : ... \Seregi's Australian Spartacus-DVD\VIDEO_TS\VTS_01_5.VOB
Формат : MPEG-PS
Размер файла : 368 Мбайт
Продолжительность : 10 м.
Режим общего битрейта : Переменный
Общий поток : 4910 Кбит/сек
Видео
Идентификатор : 224 (0xE0)
Формат : MPEG Video
Версия формата : Version 2
Профиль формата : Main@Main
Параметр BVOP формата : Да
Параметр матрицы формата : Выборочная
Параметр GOP формата : M=3, N=15
Format_Settings_PictureStructure : Frame
Продолжительность : 10 м.
Вид битрейта : Переменный
Битрейт : 3276 Кбит/сек
Максимальный битрейт : 6000 Кбит/сек
Ширина : 720 пикселей
Высота : 480 пикселей
Соотношение сторон : 4:3
Частота кадров : 29,970 кадров/сек
Стандарт вещания : NTSC
Цветовое пространство : YUV
Субдискретизация насыщенности : 4:2:0
Битовая глубина : 8 бит
Тип развёртки : Чересстрочная
Порядок развёртки : Нижнее поле первое
Метод сжатия : С потерями
Бит/(Пиксели*Кадры) : 0.316
Временной код первого кадра : 01:49:50:00
Оригинал временного кода : Group of pictures header
Размер потока : 245 Мбайт (67%)
Аудио
Идентификатор : 189 (0xBD)-160 (0xA0)
Формат : PCM
Параметр Endianness формата : Big
Параметр Sign формата : Signed
Режим смешивания : DVD-Video
Продолжительность : 10 м.
Вид битрейта : Постоянный
Битрейт : 1536 Кбит/сек
Каналы : 2 канала
Частота : 48,0 КГц
Битовая глубина : 16 бит
Задержка видео : -487 мс.
Размер потока : 115 Мбайт (31%)
Меню

Скриншот с названием постановки

Скриншоты


Скришоты некоторых сцен с быстрым движением иногда выявляют некоторую пикселизацию картинки, в ней становятся заметными "квадратики". При просмотре на экране они в глаза не бросаются, но что есть, то - есть. Привожу пару таких скриншотов
В формате DVDRip (2,16 GB) запись спектакля раздаётся на трекере
Диск с записью этого спектакля был приобретён на одном из рынков. По просмотру, хотя подобный диск и выпускался официально (в сети мне удалось найти упоминание двух вариантов ДВД-5 с этим спектаклем), у меня сложились некоторые сомнения в том, что эта копия сделана с официального диска (не идеальное качество картинки, отсутствие меню). Поэтому и решил разместить данный релиз в этом разделе, а не в "Балеты (DVD и HD)".

[Цитировать]

Rezach, спасибо за прекрасные видеоматериалы, но если есть структура двд диска лучше всего будет перенести их в соответствующий раздел.

Топик был перенесен из форума Балеты (Video) в форум Балеты (DVD и HD)
admin

[Цитировать]

Топик был перенесен из форума Балеты (Video) в форум Балеты (DVD и HD)
А находится почему-то в папке форума "Современный танец (Video)". Что-то как-то не очень логично.

[Цитировать]

Rezach, ошибся в выборе. поменял уже


Показать сообщения:    

Текущее время: 05-Дек 23:41

Часовой пояс: UTC + 3


Вы не можете начинать темы
Вы не можете отвечать на сообщения
Вы не можете редактировать свои сообщения
Вы не можете удалять свои сообщения
Вы не можете голосовать в опросах
Вы не можете прикреплять файлы к сообщениям
Вы не можете скачивать файлы