Иван Грозный (Владимиров / Бессмертнова / Акимов) — Сергей Прокофьев, Михаил Чулаки / Ivan the Terrible ( Vladimirov / Bessmertnova / Akimov ) – Sergey Prokofiev, Mikhail Chulaki (Ю.Н. Григорович) [1976, СССР, фильм-балет, DVD5] Большой театр


 

[Цитировать]

Иван Грозный ( Владимиров — Бессмертнова — Акимов ) — Сергей Прокофьев, Михаил Чулаки / Ivan the Terrible ( Vladimirov – Bessmertnova – Akimov ) – Sergey Prokofiev, Mikhail Chulaki
Название театра: Большой театр, "Мосфильм"
Страна: СССР
Жанр: фильм-балет
Год выпуска: 1976
Продолжительность: 1:25:47
Cубтитры: английские неотключаемые
Хореограф: Ю.Н. Григорович
Режиссёры и авторы сценария: В Дербенёв, Ю. Григорович
Музыка С.С. Прокофьева в музыкальной редакции и композиции М.И. Чулаки
Костюмы: С. Вирсаладзе
Операторы: В. Дербенёв, В. Пищальников
Художник: В. Вырвич
В ролях:
Иван Грозный — Юрий Владимиров
Анастасия — Наталия Бессметрнова
Князь Курбский — Борис Акимов
Артисты балета и оркестр Большого театра Союза ССР, дирижёр А.М. Жюрайтис

Описание

Звонари возвещают о восшествии на престол молодого царя Ивана IV. Бояре недовольны его избранием, каждый из них считает себя не менее родовитым. На смотринах невест Иван должен из молодых боярышень выбрать себе жену, будущую царицу. Его выбор останавливается на Анастасии. Князь Курбский в отчаянии — в сердце его живет любовь к Анастасии. Теперь он потерял её навсегда. Тревожно звучит набат. Звонари сообщают о нашествии иноземцев. В битве Иван возглавляет русские полки. Рядом с ним и Курбский. Смерть косит ряды сражающихся — но вестницы победы сулят близкое поражение иноземцам. Русские полки теснят врагов. Победа! Анастасия ждет Ивана, тревожится за его судьбу. С победой возвращаются русские воины. Радостна их встреча с любимыми. Иван и Анастасия вновь вместе. Ликует народ, празднует Русь свою победу над врагом. Но вдруг страшная весть пронеслась по Руси — царь занемог. В смятении Анастасия. Бояре подняли головы, каждый претендует на трон. Но — грозен царь, нежданно излечившийся от недуга, не будет теперь от него пощады изменникам-боярам. Иван и Анастасия счастливы. Бояре замышляют заговор, в который вовлекают Курбского. В их руках кубок с ядом и первой жертвой становится Анастасия. В ужасе смотрит Курбский на смертельную агонию царицы. В страхе разбегаются бояре. Звонари возвещают о смерти царицы, об измене боярской. В народе смута, готовая перейти в бунт. Иван оплакивает Анастасию. В воображении его возникает призрак любимой. Курбскому, страшащемуся мести Ивана, остается одно — бежать. Бояре ожидают мести царя. В монашеских одеяниях появляются новые люди, которыми решил окружить себя Иван Грозный. Это опричники. Им доверяет царь извести крамолу на Руси, покончить с самовластием боярским. Схвачены бояре. Чинят расправу над ними опричники. Иван Грозный самолично вершит суд над ними. Тяжелы раздумья Ивана. Человека, потерявшего любимую. Царя, окруженного врагами. Преследуемый видениями, Иван терзается мыслью, что в своей борьбе утратил человечность и обрек себя на одиночество. Исступленно ищет Иван Грозный выхода из сплетенного историей клубка противоречий.

Дополнительная информация

Премьера спектакля состоялась 20 февраля 1975 г., в главных партиях в день премьеры выступили: Иван Грозный - Юрий Владимиров, Анастасия - Наталия Бессмертнова, князь Курбский - Борис Акимов. Дирижёр — А.М. Жюрайтис. Музыкальной основой спектакля послужила музыка С.С. Прокофьева к кинофильму «Иван Грозный» (1944), использованы также фрагменты музыки из других произведений композитора. В 1976 г. на основе этого спектакля Большого театра был снят фильм-балет «Грозный век» (режиссёры и авторы сценария В. Дербенёв, Ю. Григорович, операторы В. Дербенёв, В. Пищальников, художник В. Вырвич), который вышел на экраны в 1978 г. Именно этот фильм-балет представлен в данном релизе. Видимо, титры фильма были изготовлены с названием не только «Грозный век», но и «Иван Грозный», так как именно кадр с названием фильма послужил постером для данной раздачи.

Альтернативный постер

Качество видео: DVD5
Формат видео: DVDVideo
Видео кодек: MPEG2
Аудио кодек: AC3
Видео: NTSC, 720x480 (4:3), 6000 kbps, 29,97 fps
Аудио: AC3 Dolby Digital, 256 kbps, 48 kHz, 2/0 (L,R) ch

MediaInfo

Общее
Полное имя : ... \Ivan Groznyi - Vladimirov - DVD\VIDEO_TS\VIDEO_TS.BUP
Формат : DVD Video
Профиль формата : Menu
Размер файла : 12,0 Кбайт
Режим общего битрейта : Переменный
Видео
Идентификатор : 224 (0xE0)
Формат : MPEG Video
Версия формата : Version 2
Вид битрейта : Переменный
Ширина : 720 пикселей
Высота : 480 пикселей
Соотношение сторон : 16:9
Частота кадров : 29,970 кадров/сек
Стандарт вещания : NTSC
Метод сжатия : С потерями
Аудио
Формат : AC-3
Формат/Информация : Audio Coding 3
Каналы : 2 канала
Частота : 48,0 КГц
Метод сжатия : С потерями
Текст
Формат : RLE
Формат/Информация : Run-length encoding
Битовая глубина : 2 бит
Общее
Полное имя : ... \Ivan Groznyi - Vladimirov - DVD\VIDEO_TS\VIDEO_TS.IFO
Формат : DVD Video
Профиль формата : Menu
Размер файла : 12,0 Кбайт
Режим общего битрейта : Переменный
Видео
Идентификатор : 224 (0xE0)
Формат : MPEG Video
Версия формата : Version 2
Вид битрейта : Переменный
Ширина : 720 пикселей
Высота : 480 пикселей
Соотношение сторон : 16:9
Частота кадров : 29,970 кадров/сек
Стандарт вещания : NTSC
Метод сжатия : С потерями
Аудио
Формат : AC-3
Формат/Информация : Audio Coding 3
Каналы : 2 канала
Частота : 48,0 КГц
Метод сжатия : С потерями
Текст
Формат : RLE
Формат/Информация : Run-length encoding
Битовая глубина : 2 бит
Общее
Полное имя : ... \Ivan Groznyi - Vladimirov - DVD\VIDEO_TS\VIDEO_TS.VOB
Формат : MPEG-PS
Размер файла : 12,9 Мбайт
Продолжительность : 16 с.
Общий поток : 6503 Кбит/сек
Видео
Идентификатор : 224 (0xE0)
Формат : MPEG Video
Версия формата : Version 2
Профиль формата : Main@Main
Параметр BVOP формата : Да
Параметр матрицы формата : По умолчанию
Параметр GOP формата : M=3, N=7
Продолжительность : 16 с.
Битрейт : 6118 Кбит/сек
Ширина : 720 пикселей
Высота : 480 пикселей
Соотношение сторон : 2,40:1
Частота кадров : 29,970 кадров/сек
Стандарт вещания : NTSC
Цветовое пространство : YUV
Субдискретизация насыщенности : 4:2:0
Битовая глубина : 8 бит
Метод сжатия : С потерями
Бит/(Пиксели*Кадры) : 0.591
Размер потока : 12,2 Мбайт (94%)
Основные цвета : BT.601 NTSC
Характеристики трансфера : BT.601
Коэффициенты матрицы : BT.601
Аудио
Идентификатор : 189 (0xBD)-128 (0x80)
Формат : AC-3
Формат/Информация : Audio Coding 3
Расширение режима : CM (complete main)
Параметр Endianness формата : Big
Режим смешивания : DVD-Video
Продолжительность : 16 с.
Вид битрейта : Постоянный
Битрейт : 256 Кбит/сек
Каналы : 2 канала
Расположение каналов : Front: L R
Частота : 48,0 КГц
Битовая глубина : 16 бит
Метод сжатия : С потерями
Размер потока : 521 Кбайт (4%)
Меню
Общее
Полное имя : ... \Ivan Groznyi - Vladimirov - DVD\VIDEO_TS\VTS_01_0.BUP
Формат : DVD Video
Профиль формата : Program
Размер файла : 66,0 Кбайт
Продолжительность : 1 ч. 25 м.
Режим общего битрейта : Переменный
Общий поток : 105 бит/сек
Видео
Идентификатор : 224 (0xE0)
Формат : MPEG Video
Версия формата : Version 2
Продолжительность : 1 ч. 25 м.
Вид битрейта : Переменный
Ширина : 720 пикселей
Высота : 480 пикселей
Соотношение сторон : 4:3
Частота кадров : 29,970 кадров/сек
Стандарт вещания : NTSC
Метод сжатия : С потерями
Аудио
Идентификатор : 128 (0x80)
Формат : AC-3
Формат/Информация : Audio Coding 3
Продолжительность : 1 ч. 25 м.
Каналы : 2 канала
Частота : 48,0 КГц
Метод сжатия : С потерями
Язык : English
Меню
Продолжительность : 1 ч. 25 м.
00:00:00.000 : Chapter 1
00:01:38.700 : Chapter 2
00:04:50.033 : Chapter 3
00:06:59.066 : Chapter 4
00:10:08.066 : Chapter 5
00:17:24.866 : Chapter 6
00:19:28.299 : Chapter 7
00:27:07.732 : Chapter 8
00:30:42.865 : Chapter 9
00:36:34.031 : Chapter 10
00:40:47.664 : Chapter 11
00:43:28.430 : Chapter 12
00:48:45.530 : Chapter 13
00:53:23.196 : Chapter 14
00:56:49.929 : Chapter 15
00:58:19.062 : Chapter 16
01:02:48.328 : Chapter 17
01:12:05.294 : Chapter 18
01:14:09.660 : Chapter 19
01:20:54.026 : Chapter 20
List (Audio) : 0
Общее
Полное имя : ... \Ivan Groznyi - Vladimirov - DVD\VIDEO_TS\VTS_01_0.IFO
Формат : DVD Video
Профиль формата : Program
Размер файла : 66,0 Кбайт
Продолжительность : 1 ч. 25 м.
Режим общего битрейта : Переменный
Общий поток : 105 бит/сек
Видео
Идентификатор : 224 (0xE0)
Формат : MPEG Video
Версия формата : Version 2
Продолжительность : 1 ч. 25 м.
Вид битрейта : Переменный
Ширина : 720 пикселей
Высота : 480 пикселей
Соотношение сторон : 4:3
Частота кадров : 29,970 кадров/сек
Стандарт вещания : NTSC
Метод сжатия : С потерями
Аудио
Идентификатор : 128 (0x80)
Формат : AC-3
Формат/Информация : Audio Coding 3
Продолжительность : 1 ч. 25 м.
Каналы : 2 канала
Частота : 48,0 КГц
Метод сжатия : С потерями
Язык : English
Меню
Продолжительность : 1 ч. 25 м.
00:00:00.000 : Chapter 1
00:01:38.700 : Chapter 2
00:04:50.033 : Chapter 3
00:06:59.066 : Chapter 4
00:10:08.066 : Chapter 5
00:17:24.866 : Chapter 6
00:19:28.299 : Chapter 7
00:27:07.732 : Chapter 8
00:30:42.865 : Chapter 9
00:36:34.031 : Chapter 10
00:40:47.664 : Chapter 11
00:43:28.430 : Chapter 12
00:48:45.530 : Chapter 13
00:53:23.196 : Chapter 14
00:56:49.929 : Chapter 15
00:58:19.062 : Chapter 16
01:02:48.328 : Chapter 17
01:12:05.294 : Chapter 18
01:14:09.660 : Chapter 19
01:20:54.026 : Chapter 20
List (Audio) : 0
Общее
Полное имя : ... \Ivan Groznyi - Vladimirov - DVD\VIDEO_TS\VTS_01_0.VOB
Формат : MPEG-PS
Размер файла : 66,3 Мбайт
Продолжительность : 1 м. 24 с.
Режим общего битрейта : Переменный
Общий поток : 6563 Кбит/сек
Видео
Идентификатор : 224 (0xE0)
Формат : MPEG Video
Версия формата : Version 2
Профиль формата : Main@Main
Параметр BVOP формата : Да
Параметр матрицы формата : По умолчанию
Параметр GOP формата : Variable
Продолжительность : 1 м. 24 с.
Вид битрейта : Переменный
Битрейт : 6177 Кбит/сек
Ширина : 720 пикселей
Высота : 480 пикселей
Соотношение сторон : 16:9
Частота кадров : 29,970 кадров/сек
Стандарт вещания : NTSC
Цветовое пространство : YUV
Субдискретизация насыщенности : 4:2:0
Битовая глубина : 8 бит
Метод сжатия : С потерями
Бит/(Пиксели*Кадры) : 0.596
Размер потока : 62,4 Мбайт (94%)
Аудио
Идентификатор : 189 (0xBD)-128 (0x80)
Формат : AC-3
Формат/Информация : Audio Coding 3
Расширение режима : CM (complete main)
Параметр Endianness формата : Big
Режим смешивания : DVD-Video
Продолжительность : 1 м. 24 с.
Вид битрейта : Постоянный
Битрейт : 256 Кбит/сек
Каналы : 2 канала
Расположение каналов : Front: L R
Частота : 48,0 КГц
Битовая глубина : 16 бит
Метод сжатия : С потерями
Размер потока : 2,59 Мбайт (4%)
Текст #1
Идентификатор : 189 (0xBD)-32 (0x20)
Формат : RLE
Формат/Информация : Run-length encoding
Режим смешивания : DVD-Video
Текст #2
Идентификатор : 189 (0xBD)-33 (0x21)
Формат : RLE
Формат/Информация : Run-length encoding
Режим смешивания : DVD-Video
Меню
Общее
Полное имя : ... \Ivan Groznyi - Vladimirov - DVD\VIDEO_TS\VTS_01_1.VOB
Формат : MPEG-PS
Размер файла : 1024 Мбайт
Продолжительность : 22 м.
Общий поток : 6398 Кбит/сек
Видео
Идентификатор : 224 (0xE0)
Формат : MPEG Video
Версия формата : Version 2
Профиль формата : Main@Main
Параметр BVOP формата : Да
Параметр матрицы формата : По умолчанию
Параметр GOP формата : M=3, N=7
Format_Settings_PictureStructure : Frame
Продолжительность : 22 м.
Битрейт : 6000 Кбит/сек
Ширина : 720 пикселей
Высота : 480 пикселей
Соотношение сторон : 4:3
Частота кадров : 29,970 кадров/сек
Стандарт вещания : NTSC
Цветовое пространство : YUV
Субдискретизация насыщенности : 4:2:0
Битовая глубина : 8 бит
Тип развёртки : Чересстрочная
Порядок развёртки : Верхнее поле первое
Метод сжатия : С потерями
Бит/(Пиксели*Кадры) : 0.579
Временной код первого кадра : 01:00:24:26
Оригинал временного кода : Group of pictures header
Размер потока : 963 Мбайт (94%)
Основные цвета : BT.601 NTSC
Характеристики трансфера : BT.601
Коэффициенты матрицы : BT.601
Аудио
Идентификатор : 189 (0xBD)-128 (0x80)
Формат : AC-3
Формат/Информация : Audio Coding 3
Расширение режима : CM (complete main)
Параметр Endianness формата : Big
Режим смешивания : DVD-Video
Продолжительность : 22 м.
Вид битрейта : Постоянный
Битрейт : 256 Кбит/сек
Каналы : 2 канала
Расположение каналов : Front: L R
Частота : 48,0 КГц
Битовая глубина : 16 бит
Метод сжатия : С потерями
Размер потока : 41,0 Мбайт (4%)
Меню
Общее
Полное имя : ... \Ivan Groznyi - Vladimirov - DVD\VIDEO_TS\VTS_01_2.VOB
Формат : MPEG-PS
Размер файла : 1024 Мбайт
Продолжительность : 22 м.
Общий поток : 6398 Кбит/сек
Видео
Идентификатор : 224 (0xE0)
Формат : MPEG Video
Версия формата : Version 2
Профиль формата : Main@Main
Параметр BVOP формата : Да
Параметр матрицы формата : По умолчанию
Параметр GOP формата : M=3, N=7
Format_Settings_PictureStructure : Frame
Продолжительность : 22 м.
Битрейт : 6000 Кбит/сек
Ширина : 720 пикселей
Высота : 480 пикселей
Соотношение сторон : 4:3
Частота кадров : 29,970 кадров/сек
Стандарт вещания : NTSC
Цветовое пространство : YUV
Субдискретизация насыщенности : 4:2:0
Битовая глубина : 8 бит
Тип развёртки : Чересстрочная
Порядок развёртки : Верхнее поле первое
Метод сжатия : С потерями
Бит/(Пиксели*Кадры) : 0.579
Временной код первого кадра : 01:22:46:02
Оригинал временного кода : Group of pictures header
Размер потока : 963 Мбайт (94%)
Основные цвета : BT.601 NTSC
Характеристики трансфера : BT.601
Коэффициенты матрицы : BT.601
Аудио
Идентификатор : 189 (0xBD)-128 (0x80)
Формат : AC-3
Формат/Информация : Audio Coding 3
Расширение режима : CM (complete main)
Параметр Endianness формата : Big
Режим смешивания : DVD-Video
Продолжительность : 22 м.
Вид битрейта : Постоянный
Битрейт : 256 Кбит/сек
Каналы : 2 канала
Расположение каналов : Front: L R
Частота : 48,0 КГц
Битовая глубина : 16 бит
Метод сжатия : С потерями
Задержка видео : -269 мс.
Размер потока : 41,0 Мбайт (4%)
Меню
Общее
Полное имя : ... \Ivan Groznyi - Vladimirov - DVD\VIDEO_TS\VTS_01_3.VOB
Формат : MPEG-PS
Размер файла : 1024 Мбайт
Продолжительность : 22 м.
Общий поток : 6399 Кбит/сек
Видео
Идентификатор : 224 (0xE0)
Формат : MPEG Video
Версия формата : Version 2
Профиль формата : Main@Main
Параметр BVOP формата : Да
Параметр матрицы формата : По умолчанию
Параметр GOP формата : M=3, N=7
Format_Settings_PictureStructure : Frame
Продолжительность : 22 м.
Битрейт : 6000 Кбит/сек
Ширина : 720 пикселей
Высота : 480 пикселей
Соотношение сторон : 4:3
Частота кадров : 29,970 кадров/сек
Стандарт вещания : NTSC
Цветовое пространство : YUV
Субдискретизация насыщенности : 4:2:0
Битовая глубина : 8 бит
Тип развёртки : Чересстрочная
Порядок развёртки : Верхнее поле первое
Метод сжатия : С потерями
Бит/(Пиксели*Кадры) : 0.579
Временной код первого кадра : 01:45:07:08
Оригинал временного кода : Group of pictures header
Размер потока : 963 Мбайт (94%)
Основные цвета : BT.601 NTSC
Характеристики трансфера : BT.601
Коэффициенты матрицы : BT.601
Аудио
Идентификатор : 189 (0xBD)-128 (0x80)
Формат : AC-3
Формат/Информация : Audio Coding 3
Расширение режима : CM (complete main)
Параметр Endianness формата : Big
Режим смешивания : DVD-Video
Продолжительность : 22 м.
Вид битрейта : Постоянный
Битрейт : 256 Кбит/сек
Каналы : 2 канала
Расположение каналов : Front: L R
Частота : 48,0 КГц
Битовая глубина : 16 бит
Метод сжатия : С потерями
Задержка видео : -282 мс.
Размер потока : 41,0 Мбайт (4%)
Меню
Общее
Полное имя : ... \Ivan Groznyi - Vladimirov - DVD\VIDEO_TS\VTS_01_4.VOB
Формат : MPEG-PS
Размер файла : 862 Мбайт
Продолжительность : 18 м.
Общий поток : 6398 Кбит/сек
Видео
Идентификатор : 224 (0xE0)
Формат : MPEG Video
Версия формата : Version 2
Профиль формата : Main@Main
Параметр BVOP формата : Да
Параметр матрицы формата : По умолчанию
Параметр GOP формата : M=3, N=7
Format_Settings_PictureStructure : Frame
Продолжительность : 18 м.
Битрейт : 6000 Кбит/сек
Ширина : 720 пикселей
Высота : 480 пикселей
Соотношение сторон : 4:3
Частота кадров : 29,970 кадров/сек
Стандарт вещания : NTSC
Цветовое пространство : YUV
Субдискретизация насыщенности : 4:2:0
Битовая глубина : 8 бит
Тип развёртки : Чересстрочная
Порядок развёртки : Верхнее поле первое
Метод сжатия : С потерями
Бит/(Пиксели*Кадры) : 0.579
Временной код первого кадра : 02:07:28:14
Оригинал временного кода : Group of pictures header
Размер потока : 810 Мбайт (94%)
Основные цвета : BT.601 NTSC
Характеристики трансфера : BT.601
Коэффициенты матрицы : BT.601
Аудио
Идентификатор : 189 (0xBD)-128 (0x80)
Формат : AC-3
Формат/Информация : Audio Coding 3
Расширение режима : CM (complete main)
Параметр Endianness формата : Big
Режим смешивания : DVD-Video
Продолжительность : 18 м.
Вид битрейта : Постоянный
Битрейт : 256 Кбит/сек
Каналы : 2 канала
Расположение каналов : Front: L R
Частота : 48,0 КГц
Битовая глубина : 16 бит
Метод сжатия : С потерями
Задержка видео : -423 мс.
Размер потока : 34,5 Мбайт (4%)
Меню

Скриншот с названием постановки

Скриншоты


При монтаже фильма он был авторами разбит на главы, каждая глава при просмотре начинается с заставки, начало просмотра предваряется кратким изложением содержания. Изготовители диска и краткое изложение сюжета, и названия глав снабдили неотключаемыми субтитрами на английском языке. Скриншоты, иллюстрирующие названия и глав и имеющиеся в записи английские субтитры:

Судя по всему, оцифровке была подвергнута совершенно не отреставрированная копия фильма. Соответственно, запись изобилует различного рода дефектами изображения, обусловленными дефектами оригинала. Скриншоты, иллюстрирующие упомянутые дефекты:
В формате AVI (1,45 ГБ) запись спектакля раздаётся на трекере



Показать сообщения:    

Текущее время: 09-Дек 01:08

Часовой пояс: UTC + 3


Вы не можете начинать темы
Вы не можете отвечать на сообщения
Вы не можете редактировать свои сообщения
Вы не можете удалять свои сообщения
Вы не можете голосовать в опросах
Вы не можете прикреплять файлы к сообщениям
Вы не можете скачивать файлы