Спартак (Клевцов / Березина / Муравлёв / Павлова) - А.И. Хачатурян / Spartacus (Н.Д. Касаткина, В.Ю. Василёв) [2002, Российская Федерация, балет, DVD5] Театр классического балета Н. Касаткиной и В. Василёва / Moscow Classical Ballet


 

[Цитировать]

Спартак ( Клевцов / Березина / Муравлёв / Павлова ) - А.И. Хачатурян / Spartacus (Klevtsov / Berezina / Muravlyov / Pavlova ) - Aram Khachaturian
Название театра: Театр классического балета Н. Касаткиной и В. Василёва / Moscow Classical Ballet
Страна: Российская Федерация
Жанр: балет
Год выпуска: 2002
Продолжительность: 1:59:15
Cубтитры: английские неотключаемые
Хореографы: Н.Д. Касаткина, В.Ю. Василёв
Либретто по историческим материалам, мотивам романа Р. Джованьоли и собственным фантазиям Наталии Касаткиной и Владимира Василёва
Художник-постановщик: Иосиф Сумбаташвили
Художник по костюмам: Елизавета Дворкина
В ролях:
Спартак, фракийский воин - Юрий Клевцов
Аврелия, греческая танцовщица, рабыня - Екатерина Березина
Марк Луциний Красс, военачальник - Владимир Муравлёв
Эвтибида, амазонка, наложница Красса - Ольга Павлова
Луций Корнелий Сулла, экс-диктатор - Сергей Белорыбкин
Оркестр Государственного академического театра классического балета Н. Касаткиной и В. Василёва. Дирижёр - А.А. Петухов.

Описание

Вступление. «Песнь о герое».
Акт первый.
Картина первая. Пленение Спартака.
На поле боя Спартак один сражается против многочисленных противников. Раненый, он попадает в плен к римлянам.
Картина вторая. Триумф Красса.
Экс-диктатор Луций Корнелий Сулла в Колизее принимает парад римского войска. В церемонии участвуют рабыня - греческая танцовщица Аврелия в образе Богини Победы и мим Метробий в образе Бога Войны. Среди победителей наложница Марка Луциния Красса амазонка Эвтибида; связанный Спартак вывозит на колеснице удачливого военачальника Красса. Аврелия бросается к Спартаку, узнав в нём своего возлюбленного.
Праздник победы продолжают бои гладиаторов: Андабаты, Ретиарий и Мирмиллон, Фракийцы и Самниты.
Красс выпускает безоружного Спартака против нескольких противников. Спартак побеждает, но просит сохранить жизнь поверженным гладиаторам. Спартака вновь связывают. Эвтибида, исполняя танец «Римской волчицы», снимает со Спартака путы и увлекает Красса прочь из Колизея. К Спартаку бросаются спасённые им гладиаторы Крикс, Ганник и Касс.
Картина третья. Заговор.
В таверне «Венеры Либитины» (Венеры Погребальной) собираются рабы, горожане, мимы, нищие. Их угощают хозяйка таверны Лутация Одноглазая и две её служанки. Появляется Спартак с друзьями. Он призывает всех к восстанию. Все с энтузиазмом отвечают на его призыв.
Картина четвёртая. Свидание Спартака и Аврелии.
На улицах Рима Спартак тайно встречается с Аврелией. Мимо них проходят патриции, приглашённые на пир экс-диктатора Суллы. На носилках приносят Красса в сопровождении Метробия. Аврелия вынуждена присоединиться к свите Эвтибиды. Спартак старается избежать настойчивого внимания этой капризной матроны.
Картина пятая. Пир у экс-диктатора.
В римском патио собрались самые знатные патриции и матроны.
Для гостей экс-диктатор Сулла приготовил представление. Танцуют Метробий и мимы, Красс, Метробий и Эвтибида, стараются вовлечь в эротические игры и Аврелию, но той удаётся ускользнуть. Аврелия вместе с Метробием и мимами танцует этрусский танец. Во время танца со змеями гадитанских дев в патио врываются спартаковцы.
Факелами они поджигают зал. Спартак отпускает всех женщин и Эвтибиду. Она выводит из терм Красса и Метробия, спрятав их среди гадитанских дев и рабынь. Повстанцы провозглашают Спартака своим полководцем.
Акт второй. «Песнь победы».
Картина шестая. Обучение войска Спартака и бой.
Лагерь Спартака. Гладиаторы обучают рабов римскому строю. Воины учатся сражаться на разных видах оружия, толпа рабов на глазах превращается в прекрасно обученное войско. Сражение с римлянами. Победа спартаковцев. Эвтибида признаётся в любви Спартаку. Он равнодушен к ней. Эвтибида пытается убить его и клянётся отомстить.
Картина седьмая. Поражение Красса.
Красс в ярости убивает отступающих в панике своих воинов и силой налаживает дисциплину. Эвтибида увлекает его в запрещённый в Риме оккультный египетский храм.
Картина восьмая. Жертвоприношение.
В египетском храме в ритуальном танце Эвтибида закалывает весталку-девственницу и её кровью омывает меч Красса, чтобы вымолить у богини Изиды победу римскому войску.
Картина девятая. Бунт в лагере Спартака.
Рабы, упоённые победами, грабят, пытают пленных, насилуют их жён и дочерей. После вмешательства возмущённого Спартака часть войска во главе с самым его близким другом Криксом отделяется, чтобы идти на Рим. Спартак против – его цель вернуть освобождённых рабов в их страны. Но, подчиняясь решениям сподвижников, он остаётся во главе войска. Спартак вместе с Аврелией переживают эту ночь в предчувствии последнего смертельного боя, «Песнь о любви».
Картина десятая. Последний бой. «Песнь о бессмертии».
В кровавом сражении вместе со своим войском погибает Спартак. Эвтибида скрывает скорбь. Женщины-рабыни из покорённых Римом стран оплакивают погибших возлюбленных. Аврелия прощается со Спартаком.
Картина одиннадцатая. Триумф Красса.
Колесница Красса и Эвтибиды влекома новыми рабами. Толпа приветствует победителей.

Дополнительная информация

Первая постановка балета "Спартак" - Ленинградский академический театр оперы и балета имени С.М.Кирова (в настоящее время - Мариинский театр), хореография Л.В. Якобсона. Премьера состоялась 27.12.1956.
Премьера балета "Спартак" в Театре классического балета Н. Касаткиной и В. Василёва состоялась в 2002 г. Данную запись завершает надпись на экране "ТВЦ 2002 г.", так что вероятнее сего спектакль, прдставленный в этом релизе, состоялся в 2002 г.
Качество видео: DVD5
Формат видео: DVDVideo
Видео кодек: MPEG2
Аудио кодек: AC3
Видео: NTSC, 720x480 (4:3), 4700 kbps, 29,97 fps
Аудио: AC3 Dolby Digital, 192 kbps, 48 kHz, 2/0 (L,R) ch

MediaInfo

Полное имя : ... \Spartacus-ClassBallet-DVD\VIDEO_TS\VTS_01_0.VOB
Формат : MPEG-PS
Размер файла : 2,06 Мбайт
Продолжительность : 1 м. 4 с.
Общий поток : 270 Кбит/сек
Видео
Идентификатор : 224 (0xE0)
Формат : MPEG Video
Версия формата : Version 2
Профиль формата : Main@Main
Параметр BVOP формата : Нет
Параметр матрицы формата : Выборочная
Продолжительность : 63 мс.
Битрейт : 72,7 Кбит/сек
Максимальный битрейт : 9000 Кбит/сек
Ширина : 720 пикселей
Высота : 480 пикселей
Соотношение сторон : 4:3
Частота кадров : 29,970 кадров/сек
Стандарт вещания : NTSC
Цветовое пространство : YUV
Субдискретизация насыщенности : 4:2:0
Битовая глубина : 8 бит
Тип развёртки : Прогрессивная
Порядок развёртки : Верхнее поле первое
Метод сжатия : С потерями
Бит/(Пиксели*Кадры) : 0.007
Размер потока : 606 байт (0%)
Основные цвета : BT.601 NTSC
Характеристики трансфера : BT.601
Коэффициенты матрицы : BT.601
Аудио
Идентификатор : 189 (0xBD)-128 (0x80)
Формат : AC-3
Формат/Информация : Audio Coding 3
Расширение режима : CM (complete main)
Параметр Endianness формата : Big
Режим смешивания : DVD-Video
Продолжительность : 1 м. 4 с.
Вид битрейта : Постоянный
Битрейт : 192 Кбит/сек
Каналы : 2 канала
Расположение каналов : Front: L R
Частота : 48,0 КГц
Битовая глубина : 16 бит
Метод сжатия : С потерями
Задержка видео : 5 мс.
Размер потока : 1,47 Мбайт (71%)
Текст
Идентификатор : 189 (0xBD)-32 (0x20)
Формат : RLE
Формат/Информация : Run-length encoding
Режим смешивания : DVD-Video
Продолжительность : 21 мс.
Меню
Общее
Полное имя : ... \Spartacus-ClassBallet-DVD\VIDEO_TS\VTS_01_1.VOB
Формат : MPEG-PS
Размер файла : 1024 Мбайт
Продолжительность : 28 м.
Общий поток : 4997 Кбит/сек
Видео
Идентификатор : 224 (0xE0)
Формат : MPEG Video
Версия формата : Version 2
Профиль формата : Main@Main
Параметр BVOP формата : Да
Параметр матрицы формата : По умолчанию
Параметр GOP формата : M=3, N=13
Format_Settings_PictureStructure : Frame
Продолжительность : 28 м.
Битрейт : 4705 Кбит/сек
Максимальный битрейт : 6200 Кбит/сек
Ширина : 720 пикселей
Высота : 480 пикселей
Соотношение сторон : 4:3
Частота кадров : 29,970 кадров/сек
Стандарт вещания : NTSC
Цветовое пространство : YUV
Субдискретизация насыщенности : 4:2:0
Битовая глубина : 8 бит
Тип развёртки : Чересстрочная
Порядок развёртки : Верхнее поле первое
Метод сжатия : С потерями
Бит/(Пиксели*Кадры) : 0.454
Временной код первого кадра : 09:59:59:00
Оригинал временного кода : Group of pictures header
Размер потока : 964 Мбайт (94%)
Основные цвета : BT.601 NTSC
Характеристики трансфера : BT.601
Коэффициенты матрицы : BT.601
Аудио
Идентификатор : 189 (0xBD)-128 (0x80)
Формат : AC-3
Формат/Информация : Audio Coding 3
Расширение режима : CM (complete main)
Параметр Endianness формата : Big
Режим смешивания : DVD-Video
Продолжительность : 28 м.
Вид битрейта : Постоянный
Битрейт : 192 Кбит/сек
Каналы : 2 канала
Расположение каналов : Front: L R
Частота : 48,0 КГц
Битовая глубина : 16 бит
Метод сжатия : С потерями
Размер потока : 39,3 Мбайт (4%)
Меню
Общее
Полное имя : ... \Spartacus-ClassBallet-DVD\VIDEO_TS\VTS_01_2.VOB
Формат : MPEG-PS
Размер файла : 1024 Мбайт
Продолжительность : 28 м.
Общий поток : 4977 Кбит/сек
Видео
Идентификатор : 224 (0xE0)
Формат : MPEG Video
Версия формата : Version 2
Профиль формата : Main@Main
Параметр BVOP формата : Да
Параметр матрицы формата : По умолчанию
Параметр GOP формата : M=3, N=13
Format_Settings_PictureStructure : Frame
Продолжительность : 28 м.
Битрейт : 4700 Кбит/сек
Ширина : 720 пикселей
Высота : 480 пикселей
Соотношение сторон : 4:3
Частота кадров : 29,970 кадров/сек
Стандарт вещания : NTSC
Цветовое пространство : YUV
Субдискретизация насыщенности : 4:2:0
Битовая глубина : 8 бит
Тип развёртки : Чересстрочная
Порядок развёртки : Верхнее поле первое
Метод сжатия : С потерями
Бит/(Пиксели*Кадры) : 0.454
Временной код первого кадра : 00:29:57:19
Оригинал временного кода : Group of pictures header
Размер потока : 964 Мбайт (94%)
Основные цвета : BT.601 NTSC
Характеристики трансфера : BT.601
Коэффициенты матрицы : BT.601
Аудио
Идентификатор : 189 (0xBD)-128 (0x80)
Формат : AC-3
Формат/Информация : Audio Coding 3
Расширение режима : CM (complete main)
Параметр Endianness формата : Big
Режим смешивания : DVD-Video
Продолжительность : 28 м.
Вид битрейта : Постоянный
Битрейт : 192 Кбит/сек
Каналы : 2 канала
Расположение каналов : Front: L R
Частота : 48,0 КГц
Битовая глубина : 16 бит
Метод сжатия : С потерями
Задержка видео : -375 мс.
Размер потока : 39,5 Мбайт (4%)
Меню
Общее
Полное имя : ... \Spartacus-ClassBallet-DVD\VIDEO_TS\VTS_01_3.VOB
Формат : MPEG-PS
Размер файла : 1024 Мбайт
Продолжительность : 28 м.
Общий поток : 4977 Кбит/сек
Видео
Идентификатор : 224 (0xE0)
Формат : MPEG Video
Версия формата : Version 2
Профиль формата : Main@Main
Параметр BVOP формата : Да
Параметр матрицы формата : По умолчанию
Параметр GOP формата : M=3, N=13
Format_Settings_PictureStructure : Frame
Продолжительность : 28 м.
Битрейт : 4700 Кбит/сек
Ширина : 720 пикселей
Высота : 480 пикселей
Соотношение сторон : 4:3
Частота кадров : 29,970 кадров/сек
Стандарт вещания : NTSC
Цветовое пространство : YUV
Субдискретизация насыщенности : 4:2:0
Битовая глубина : 8 бит
Тип развёртки : Чересстрочная
Порядок развёртки : Верхнее поле первое
Метод сжатия : С потерями
Бит/(Пиксели*Кадры) : 0.454
Временной код первого кадра : 00:58:41:13
Оригинал временного кода : Group of pictures header
Размер потока : 964 Мбайт (94%)
Основные цвета : BT.601 NTSC
Характеристики трансфера : BT.601
Коэффициенты матрицы : BT.601
Аудио
Идентификатор : 189 (0xBD)-128 (0x80)
Формат : AC-3
Формат/Информация : Audio Coding 3
Расширение режима : CM (complete main)
Параметр Endianness формата : Big
Режим смешивания : DVD-Video
Продолжительность : 28 м.
Вид битрейта : Постоянный
Битрейт : 192 Кбит/сек
Каналы : 2 канала
Расположение каналов : Front: L R
Частота : 48,0 КГц
Битовая глубина : 16 бит
Метод сжатия : С потерями
Задержка видео : -11 мс.
Размер потока : 39,5 Мбайт (4%)
Меню
Общее
Полное имя : ... \Spartacus-ClassBallet-DVD\VIDEO_TS\VTS_01_4.VOB
Формат : MPEG-PS
Размер файла : 1024 Мбайт
Продолжительность : 28 м.
Общий поток : 4977 Кбит/сек
Видео
Идентификатор : 224 (0xE0)
Формат : MPEG Video
Версия формата : Version 2
Профиль формата : Main@Main
Параметр BVOP формата : Да
Параметр матрицы формата : По умолчанию
Параметр GOP формата : M=3, N=13
Format_Settings_PictureStructure : Frame
Продолжительность : 28 м.
Битрейт : 4700 Кбит/сек
Ширина : 720 пикселей
Высота : 480 пикселей
Соотношение сторон : 4:3
Частота кадров : 29,970 кадров/сек
Стандарт вещания : NTSC
Цветовое пространство : YUV
Субдискретизация насыщенности : 4:2:0
Битовая глубина : 8 бит
Тип развёртки : Чересстрочная
Порядок развёртки : Верхнее поле первое
Метод сжатия : С потерями
Бит/(Пиксели*Кадры) : 0.454
Временной код первого кадра : 01:27:25:20
Оригинал временного кода : Group of pictures header
Размер потока : 964 Мбайт (94%)
Основные цвета : BT.601 NTSC
Характеристики трансфера : BT.601
Коэффициенты матрицы : BT.601
Аудио
Идентификатор : 189 (0xBD)-128 (0x80)
Формат : AC-3
Формат/Информация : Audio Coding 3
Расширение режима : CM (complete main)
Параметр Endianness формата : Big
Режим смешивания : DVD-Video
Продолжительность : 28 м.
Вид битрейта : Постоянный
Битрейт : 192 Кбит/сек
Каналы : 2 канала
Расположение каналов : Front: L R
Частота : 48,0 КГц
Битовая глубина : 16 бит
Метод сжатия : С потерями
Задержка видео : -112 мс.
Размер потока : 39,5 Мбайт (4%)
Меню
Общее
Полное имя : ... \Spartacus-ClassBallet-DVD\VIDEO_TS\VTS_01_5.VOB
Формат : MPEG-PS
Размер файла : 163 Мбайт
Видео
Идентификатор : 224 (0xE0)
Формат : MPEG Video
Версия формата : Version 2
Профиль формата : Main@Main
Параметр BVOP формата : Да
Параметр матрицы формата : По умолчанию
Параметр GOP формата : M=3, N=13
Format_Settings_PictureStructure : Frame
Максимальный битрейт : 4700 Кбит/сек
Ширина : 720 пикселей
Высота : 480 пикселей
Соотношение сторон : 4:3
Частота кадров : 29,970 кадров/сек
Стандарт вещания : NTSC
Цветовое пространство : YUV
Субдискретизация насыщенности : 4:2:0
Битовая глубина : 8 бит
Тип развёртки : Чересстрочная
Порядок развёртки : Верхнее поле первое
Метод сжатия : С потерями
Временной код первого кадра : 01:56:09:27
Оригинал временного кода : Group of pictures header
Основные цвета : BT.601 NTSC
Характеристики трансфера : BT.601
Коэффициенты матрицы : BT.601
Аудио
Идентификатор : 189 (0xBD)-128 (0x80)
Формат : AC-3
Формат/Информация : Audio Coding 3
Расширение режима : CM (complete main)
Параметр Endianness формата : Big
Режим смешивания : DVD-Video
Вид битрейта : Постоянный
Битрейт : 192 Кбит/сек
Каналы : 2 канала
Расположение каналов : Front: L R
Частота : 48,0 КГц
Битовая глубина : 16 бит
Метод сжатия : С потерями
Задержка видео : -278 мс.

Скриншот с названием постановки

Скриншоты меню

Скриншоты


При издании DVD-диска спектакль был разделён на главы. В ходе просмотра начало каждой главы сопровождается неотключаемыми субтитрами на английском языке, на русском языке название каждой главы озвучено закадровым голосом диктора. Для примера привожу несколько скриншотов кадров, на которых видны указанные субтитры:
В формате "AVI" запись спектакля раздаётся на трекере "Рутрекер" (1,47 GB).
В ходе просмотра у релизера сложились сомнения в официальном происхождении этого диска (отсутствие различного рода надписей, обычно предваряющих просмотр, титры "ТВЦ 2002 г." в конце записи). Поэтому и решил разместить данный релиз в этом разделе, а не в "Балеты (DVD и HD)". 



Показать сообщения:    

Текущее время: 11-Дек 11:08

Часовой пояс: UTC + 3


Вы не можете начинать темы
Вы не можете отвечать на сообщения
Вы не можете редактировать свои сообщения
Вы не можете удалять свои сообщения
Вы не можете голосовать в опросах
Вы не можете прикреплять файлы к сообщениям
Вы не можете скачивать файлы