Ромео и Джульетта ( Максимова / Васильев ) - С.С. Прокофьев / Romeo and Juliet ( Maksimova / Vasiliev ) - S. Prokofiev (Л.М. Лавровский) [1974, СССР, балет, DVD9] Большой театр


 

[Цитировать]

Ромео и Джульетта ( Максимова / Васильев ) - С.С. Прокофьев / Romeo and Juliet ( Maksimova / Vasiliev ) - S. Prokofiev
Название театра: Большой театр
Страна: СССР
Жанр: балет
Год выпуска: 1974
Продолжительность: 2:35:52
Хореограф: Л.М. Лавровский
Композитор: С.С. Прокофьев
Художник: П.В. Вильямс
В ролях:
Джульетта - Екатерина Максимова
Ромео - Владимир Васильев
Артисты балета и оркестр Большого театра Союза ССР, дирижёр А.М. Жюрайтис

Описание

Краткое содержание
Первое действие.
Первая картина. Площадь Вероны. Тихий рассветный час. Только Ромео — сын старого Монтекки - бродит по пустынным улицам. Из богатого дома Капулетти выходят трое слуг и направляются к кабачку полюбезничать со служанками. На площади появляются слуги Монтекки — заклятого врага Капулетти. Слуги Капулетти начинают с ними ссору, ссора переходит в рукопашную, противники обнажают шпаги. В схватку вступают Бенволио — родственник Монтекки и племянник Капулетти Тибальт. Парис, приехавший в Верону просить руки дочери Капулетти — юной Джульетты, попадает на площадь в самый разгар сражения. Сам старый Монтекки и ненавистный ему Капулетти, подняв тяжёлые мечи, торопятся навстречу друг другу. Над городом раздаются тревожные звуки набата. Толпы горожан спешат на площадь. Только появление герцога Вероны останавливает сражающихся. Приближённый герцога читает народу указ — никто под страхом смерти не смеет обнажать оружие на улицах Вероны.
Просцениум. В доме Капулетти готовятся к торжественному балу. Бережно неся нарядное платье, спешит к Джульетте её кормилица. По пути она успевает выбранить слуг, утащивших из кухни горшок с праздничным блюдом.
Вторая картина. Джульетта не даёт кормилице одеть её к празднику: весело смеясь, прячется она от неё в углах комнаты. За этим занятием и застаёт Джульетту её мать. Она принесла дочери известие — Парис просит руки Джульетты.
Просцениум. Заканчиваются последние приготовления к торжеству. Слуги несут тяжёлые блюда, кувшины с вином.
Третья картина. Во дворец Капулетти торжественно входят богатые гости. Идут знатнейшие люди Вероны, идут подруги Джульетты, сопровождаемые трубадурами. Шествие замыкает Парис со своим пажем.
Просцениум. Услышав звуки музыки, Меркуцио — друг Ромео — и Бенволио , скорые на всякие проказы, решают тайком проникнуть на праздник Капулетти и уговаривают Ромео присоединиться к ним.
Четвёртая картина. Ромео и его друзья попадают во дворец Капулетти в самый разгар веселья. Важные вельможи, молоденькие девушки, трубадуры смотрят, как танцует Джульетта. Пользуясь тем, что Меркуцио отвлёк от него внимание гостей, Ромео подходит к Джульетте и говорит о своём восхищении ею. Маска падает с его лица. Теперь и Джульетта не может отвести глаз от прекрасного лица незнакомца. Но Ромео с друзьями вынужден уйти. Тибальт узнал их и спешит рассказать об этом старику Капулетти.
Просцениум. Только поздним вечером, когда гости уже покинули дом Капулетти, Джульетта узнаёт от кормилицы имя пленившего её юноши. Это Ромео — сын их врага Монтекки.
Пятая картина. Ночью Джульетта выходит на балкон, мечтая о прекрасном юноше. В саду, затканном лунным серебром, она замечает Ромео. Он не мог не придти к ней... В этот вечер они впевые сказали друг другу о своей любви.
Второе действие.
Первая картина. На площади Вероны многолюдно и весело. Сегодня в городе большой праздник. Хозяин кабачка сбился с ног, угощая многочисленных посетителей. Сквозь толпу пробирается кормилица Джульетты, она ищет Ромео, чтобы передать ему записку.
Просцениум. Ромео с восторгом прижимает к груди полученное письмо — Джульетта согласно стать его женой.
Вторая картина. В сумрачной келье, где на столе рядом с черепом, напоминающем о бренности всего земного, лежат прекрасные белые цветы, как символ земных радостей, патер Лоренцо совершает тайный обряд обручения Ромео и Джульетты. Он надеется, что этот брак сломит вековую вражду двух семей.
Просцениум. А в это время в праздничном шествии за статуей мадонны идут на площадь жители Вероны. Здесь и злейшие враги: Монтекки и Капулетти. Меркуцио покупает у торговки корзину с фруктами и щедро оделяет ими своих друзей. Тибальт жестоко расправляется со стариком-разносчиком, задевшим лотком одну из его спутниц.
Третья картина. Страшное несчастье обрушилось на Джульетту. Встретив на площади Меркуцио и Ромео, заносчивый Тибальт предательски убил Меркуцио и сам пал в поединке от руки Ромео, вынужденного отомстить за смерть друга. Герцог осудил юного Монтекки на вечное изгнание из Вероны.
Третье действие.
Первая картина. Следующее утро застаёт Ромео в комнате Джульетты. Но Ромео пора уходить, дом начинает просыпаться. Как только Ромео, в последний раз обняв Джульетту, убегает, к Джульетте входят родители, кормилица и тот, кто предназначен Джульетте в мужья — Парис. Но Джульетта принимает его так холодно, что огорчённый Парис вынужден уйти. Гнев родителей обрушивается на Джульетту. Отец грозит выгнать её из дома.
Просцениум. Джульетта в отчаянии бежит к Лоренцо.
Вторая картина. Она падает к ногам своего духовного отца, умоляя о помощи. Она готова убить себя, но Лоренцо поспешно отнимает у Джульетты клинок. Есть средство избежать ненавистной свадьбы. Лоренцо протягивает Джульетте склянку со снотворным. Она выпьет и заснёт. Родители, сочтя дочь умершей, похоронят её в фамильном склепе. А Ромео, извещённый обо всём Лоренцо, ночью вернётся и увезёт Джульетту далеко от Вероны.
Третья картина. Вечером Джульетта дала согласие на свадьбу с Парисом. А наутро, когда родители невесты, её подруги, трубадуры и счастливый жених пришли поздравить Джульетту, они нашли её неподвижно распростёртой на ложе.
Четвёртая картина. Слух о смерти дочери Капулетти мгновенно облетел весь город. Слуга Ромео, опередив посланца Лоренцо, привёз это печальное известие в далёкую Мантую, где Ромео коротал тоскливые дни изгнания. Потрясённый горем, юный Монтекки торопится в Верону.
Пятая картина. В семейный склеп Капулетти на похороны Джульетты пришла вся Верона. А когда все разошлись, в склеп вошёл Ромео. Не отрывая взгляда от прекрасного лица Джульетты, он пьёт яд и падает на ступени гробницы. Проснувшаяся Джульетта находит Ромео мёртвым. Жизнь без любимого не нужна ей и, не колеблясь ни минуты, она обрывает её ударом кинжала.
Эпилог. Над трупами своих детей старики Монтекки и Капулетти протягивают друг другу руки. Любовь оказалась сильнее вражды двух знатнейших семейств Вероны.

Дополнительная информация

Впервые балет «Ромео и Джульетта» на музыку С.С. Прокофьева был поставлен в Брно (Чехословакия), премьера состоялась 30 декабря 1938 г. (балетмейстер — И. Псота, художник — В. Скрушный, дирижёр — К. Арнольди; Джульетта — Э. Шемберова, Ромео — И. Псота). В 1940 г. в Ленинградском академическом театре оперы и балета им. С.М. Кирова (ныне — Мариинский театр) была осуществлена постановка этого балета в хореографии Л.М. Лавровского, премьера состоялась 11 января 1940 г. (художник — П.В. Вильямс, дирижёр — И.М. Шерман, Джульетта — Г. Уланова, Ромео — К. Сергеев, Тибальт — Р. Гербек, Меркуцио — А. Лопухов). В 1946 г. спектакль в хореографии Л.М. Лавровского был поставлен на сцене Большого театра (премьера — 28 декабря 1946 г., дирижёр — Ю.Ф. Файер, Джульетта — Г. Уланова, Ромео — М. Габович, Тибальт — А. Ермолаев, Меркуцио — С. Корень). В 1954 г. на основе хореграфии Л.М. Лавровского был снят фильм-балет «Ромео и Джульетта» (сценарий и постановка — Л.О. Арнштам, дирижёр — Геннадий Рождественский, Джульетта — Г. Уланова, Ромео — Ю. Жданов, Тибальт — А. Ермолаев, Меркуцио — С. Корень).

О дате, когда состоялся представленный в данной раздаче спектакль

На коробке диска указан год — 1974, и не более. Однако, дату, когда состоялся именно этот, представленный в данной раздаче спектакль, можно определить гораздо точнее. Дело в том, что запись начинается с кадров, на которых публика в зале приветствует появление в правительственной ложе Генерального секретаря ЦК КПСС Л.И. Брежнева и первого секретаря ЦК Венгерской социалистической рабочей партии Я. Кадара, а также сопровождающих их лиц, звучат гимны обоих государств. Визит в Советский Союз партийно-правительственной делегации ВНР в 1974 г. состоялся в период с 25 по 30 сентября 1974 г. В день прилёта в Кремле прошли советско-венгерские переговоры, а 26 сентября руководители обоих государств посетили Большой театр, где смотрели балет «Ромео и Джульетта», о чём на следующий день, 27.09.1974, написала газета «Правда». Таким образом, спектакль, представленный в данной раздаче, состоялся 25 сентября 1974 г.
Качество видео: DVD9
Формат видео: DVDVideo
Видео кодек: MPEG2
Аудио кодек: AC3
Видео: PAL, 720x576, 5995 kbps, 25 fps
Аудио: AC3 Dolby Digital, 192 kbps, 48 kHz, 2/0 (L,R) ch

MediaInfo

Общее
Полное имя : ... \Romeo and Juliet, GABT-1974, DVD\VIDEO_TS\VTS_02_1.VOB
Формат : MPEG-PS
Размер файла : 1024 Мбайт
Продолжительность : 22 м.
Режим общего битрейта : Переменный
Общий поток : 6317 Кбит/сек
Видео
Идентификатор : 224 (0xE0)
Формат : MPEG Video
Версия формата : Version 2
Профиль формата : Main@Main
Параметр BVOP формата : Да
Параметр матрицы формата : По умолчанию
Параметр GOP формата : M=3, N=12
Format_Settings_PictureStructure : Frame
Продолжительность : 22 м.
Вид битрейта : Переменный
Битрейт : 5999 Кбит/сек
Максимальный битрейт : 8500 Кбит/сек
Ширина : 720 пикселей
Высота : 576 пикселей
Соотношение сторон : 4:3
Частота кадров : 25,000 кадров/сек
Стандарт вещания : PAL
Цветовое пространство : YUV
Субдискретизация насыщенности : 4:2:0
Битовая глубина : 8 бит
Тип развёртки : Чересстрочная
Порядок развёртки : Нижнее поле первое
Метод сжатия : С потерями
Бит/(Пиксели*Кадры) : 0.579
Временной код первого кадра : 00:00:00:00
Оригинал временного кода : Group of pictures header
Размер потока : 972 Мбайт (95%)
Аудио
Идентификатор : 189 (0xBD)-128 (0x80)
Формат : AC-3
Формат/Информация : Audio Coding 3
Расширение режима : CM (complete main)
Параметр Endianness формата : Big
Режим смешивания : DVD-Video
Продолжительность : 22 м.
Вид битрейта : Постоянный
Битрейт : 192 Кбит/сек
Каналы : 2 канала
Расположение каналов : Front: L R
Частота : 48,0 КГц
Битовая глубина : 16 бит
Метод сжатия : С потерями
Размер потока : 31,1 Мбайт (3%)
Общее
Полное имя : ... \Romeo and Juliet, GABT-1974, DVD\VIDEO_TS\VTS_02_2.VOB
Формат : MPEG-PS
Размер файла : 1024 Мбайт
Продолжительность : 22 м.
Режим общего битрейта : Переменный
Общий поток : 6314 Кбит/сек
Видео
Идентификатор : 224 (0xE0)
Формат : MPEG Video
Версия формата : Version 2
Профиль формата : Main@Main
Параметр BVOP формата : Да
Параметр матрицы формата : По умолчанию
Параметр GOP формата : M=3, N=12
Format_Settings_PictureStructure : Frame
Продолжительность : 22 м.
Вид битрейта : Переменный
Битрейт : 5996 Кбит/сек
Максимальный битрейт : 8500 Кбит/сек
Ширина : 720 пикселей
Высота : 576 пикселей
Соотношение сторон : 4:3
Частота кадров : 25,000 кадров/сек
Стандарт вещания : PAL
Цветовое пространство : YUV
Субдискретизация насыщенности : 4:2:0
Битовая глубина : 8 бит
Тип развёртки : Чересстрочная
Порядок развёртки : Нижнее поле первое
Метод сжатия : С потерями
Бит/(Пиксели*Кадры) : 0.578
Временной код первого кадра : 00:22:39:21
Оригинал временного кода : Group of pictures header
Размер потока : 972 Мбайт (95%)
Аудио
Идентификатор : 189 (0xBD)-128 (0x80)
Формат : AC-3
Формат/Информация : Audio Coding 3
Расширение режима : CM (complete main)
Параметр Endianness формата : Big
Режим смешивания : DVD-Video
Продолжительность : 22 м.
Вид битрейта : Постоянный
Битрейт : 192 Кбит/сек
Каналы : 2 канала
Расположение каналов : Front: L R
Частота : 48,0 КГц
Битовая глубина : 16 бит
Метод сжатия : С потерями
Задержка видео : -544 мс.
Размер потока : 31,1 Мбайт (3%)
Общее
Полное имя : ... \Romeo and Juliet, GABT-1974, DVD\VIDEO_TS\VTS_02_3.VOB
Формат : MPEG-PS
Размер файла : 1024 Мбайт
Продолжительность : 22 м.
Режим общего битрейта : Переменный
Общий поток : 6315 Кбит/сек
Видео
Идентификатор : 224 (0xE0)
Формат : MPEG Video
Версия формата : Version 2
Профиль формата : Main@Main
Параметр BVOP формата : Да
Параметр матрицы формата : По умолчанию
Параметр GOP формата : M=3, N=12
Format_Settings_PictureStructure : Frame
Продолжительность : 22 м.
Вид битрейта : Переменный
Битрейт : 5998 Кбит/сек
Максимальный битрейт : 8500 Кбит/сек
Ширина : 720 пикселей
Высота : 576 пикселей
Соотношение сторон : 4:3
Частота кадров : 25,000 кадров/сек
Стандарт вещания : PAL
Цветовое пространство : YUV
Субдискретизация насыщенности : 4:2:0
Битовая глубина : 8 бит
Тип развёртки : Чересстрочная
Порядок развёртки : Нижнее поле первое
Метод сжатия : С потерями
Бит/(Пиксели*Кадры) : 0.578
Временной код первого кадра : 00:45:20:04
Оригинал временного кода : Group of pictures header
Размер потока : 972 Мбайт (95%)
Аудио
Идентификатор : 189 (0xBD)-128 (0x80)
Формат : AC-3
Формат/Информация : Audio Coding 3
Расширение режима : CM (complete main)
Параметр Endianness формата : Big
Режим смешивания : DVD-Video
Продолжительность : 22 м.
Вид битрейта : Постоянный
Битрейт : 192 Кбит/сек
Каналы : 2 канала
Расположение каналов : Front: L R
Частота : 48,0 КГц
Битовая глубина : 16 бит
Метод сжатия : С потерями
Задержка видео : -576 мс.
Размер потока : 31,1 Мбайт (3%)
Общее
Полное имя : ... \Romeo and Juliet, GABT-1974, DVD\VIDEO_TS\VTS_02_4.VOB
Формат : MPEG-PS
Размер файла : 1024 Мбайт
Продолжительность : 22 м.
Режим общего битрейта : Переменный
Общий поток : 6318 Кбит/сек
Видео
Идентификатор : 224 (0xE0)
Формат : MPEG Video
Версия формата : Version 2
Профиль формата : Main@Main
Параметр BVOP формата : Да
Параметр матрицы формата : По умолчанию
Параметр GOP формата : M=3, N=12
Format_Settings_PictureStructure : Frame
Продолжительность : 22 м.
Вид битрейта : Переменный
Битрейт : 6000 Кбит/сек
Максимальный битрейт : 8500 Кбит/сек
Ширина : 720 пикселей
Высота : 576 пикселей
Соотношение сторон : 4:3
Частота кадров : 25,000 кадров/сек
Стандарт вещания : PAL
Цветовое пространство : YUV
Субдискретизация насыщенности : 4:2:0
Битовая глубина : 8 бит
Тип развёртки : Чересстрочная
Порядок развёртки : Нижнее поле первое
Метод сжатия : С потерями
Бит/(Пиксели*Кадры) : 0.579
Временной код первого кадра : 01:08:00:00
Оригинал временного кода : Group of pictures header
Размер потока : 972 Мбайт (95%)
Аудио
Идентификатор : 189 (0xBD)-128 (0x80)
Формат : AC-3
Формат/Информация : Audio Coding 3
Расширение режима : CM (complete main)
Параметр Endianness формата : Big
Режим смешивания : DVD-Video
Продолжительность : 22 м.
Вид битрейта : Постоянный
Битрейт : 192 Кбит/сек
Каналы : 2 канала
Расположение каналов : Front: L R
Частота : 48,0 КГц
Битовая глубина : 16 бит
Метод сжатия : С потерями
Задержка видео : -448 мс.
Размер потока : 31,1 Мбайт (3%)
Общее
Полное имя : ... \Romeo and Juliet, GABT-1974, DVD\VIDEO_TS\VTS_02_5.VOB
Формат : MPEG-PS
Размер файла : 1024 Мбайт
Продолжительность : 22 м.
Режим общего битрейта : Переменный
Общий поток : 6311 Кбит/сек
Видео
Идентификатор : 224 (0xE0)
Формат : MPEG Video
Версия формата : Version 2
Профиль формата : Main@Main
Параметр BVOP формата : Да
Параметр матрицы формата : По умолчанию
Параметр GOP формата : M=3, N=12
Format_Settings_PictureStructure : Frame
Продолжительность : 22 м.
Вид битрейта : Переменный
Битрейт : 5993 Кбит/сек
Максимальный битрейт : 8500 Кбит/сек
Ширина : 720 пикселей
Высота : 576 пикселей
Соотношение сторон : 4:3
Частота кадров : 25,000 кадров/сек
Стандарт вещания : PAL
Цветовое пространство : YUV
Субдискретизация насыщенности : 4:2:0
Битовая глубина : 8 бит
Тип развёртки : Чересстрочная
Порядок развёртки : Нижнее поле первое
Метод сжатия : С потерями
Бит/(Пиксели*Кадры) : 0.578
Временной код первого кадра : 01:30:39:09
Оригинал временного кода : Group of pictures header
Размер потока : 972 Мбайт (95%)
Аудио
Идентификатор : 189 (0xBD)-128 (0x80)
Формат : AC-3
Формат/Информация : Audio Coding 3
Расширение режима : CM (complete main)
Параметр Endianness формата : Big
Режим смешивания : DVD-Video
Продолжительность : 22 м.
Вид битрейта : Постоянный
Битрейт : 192 Кбит/сек
Каналы : 2 канала
Расположение каналов : Front: L R
Частота : 48,0 КГц
Битовая глубина : 16 бит
Метод сжатия : С потерями
Задержка видео : -416 мс.
Размер потока : 31,1 Мбайт (3%)
Общее
Полное имя : ... \Romeo and Juliet, GABT-1974, DVD\VIDEO_TS\VTS_02_6.VOB
Формат : MPEG-PS
Размер файла : 1024 Мбайт
Продолжительность : 22 м.
Режим общего битрейта : Переменный
Общий поток : 6314 Кбит/сек
Видео
Идентификатор : 224 (0xE0)
Формат : MPEG Video
Версия формата : Version 2
Профиль формата : Main@Main
Параметр BVOP формата : Да
Параметр матрицы формата : По умолчанию
Параметр GOP формата : M=3, N=12
Format_Settings_PictureStructure : Frame
Продолжительность : 22 м.
Вид битрейта : Переменный
Битрейт : 5996 Кбит/сек
Максимальный битрейт : 8500 Кбит/сек
Ширина : 720 пикселей
Высота : 576 пикселей
Соотношение сторон : 4:3
Частота кадров : 25,000 кадров/сек
Стандарт вещания : PAL
Цветовое пространство : YUV
Субдискретизация насыщенности : 4:2:0
Битовая глубина : 8 бит
Тип развёртки : Чересстрочная
Порядок развёртки : Нижнее поле первое
Метод сжатия : С потерями
Бит/(Пиксели*Кадры) : 0.578
Временной код первого кадра : 01:53:20:04
Оригинал временного кода : Group of pictures header
Размер потока : 972 Мбайт (95%)
Аудио
Идентификатор : 189 (0xBD)-128 (0x80)
Формат : AC-3
Формат/Информация : Audio Coding 3
Расширение режима : CM (complete main)
Параметр Endianness формата : Big
Режим смешивания : DVD-Video
Продолжительность : 22 м.
Вид битрейта : Постоянный
Битрейт : 192 Кбит/сек
Каналы : 2 канала
Расположение каналов : Front: L R
Частота : 48,0 КГц
Битовая глубина : 16 бит
Метод сжатия : С потерями
Задержка видео : -256 мс.
Размер потока : 31,1 Мбайт (3%)
Общее
Полное имя : ... \Romeo and Juliet, GABT-1974, DVD\VIDEO_TS\VTS_02_7.VOB
Формат : MPEG-PS
Размер файла : 897 Мбайт
Продолжительность : 19 м.
Режим общего битрейта : Переменный
Общий поток : 6310 Кбит/сек
Видео
Идентификатор : 224 (0xE0)
Формат : MPEG Video
Версия формата : Version 2
Профиль формата : Main@Main
Параметр BVOP формата : Да
Параметр матрицы формата : По умолчанию
Параметр GOP формата : M=3, N=12
Format_Settings_PictureStructure : Frame
Продолжительность : 19 м.
Вид битрейта : Переменный
Битрейт : 5993 Кбит/сек
Максимальный битрейт : 8500 Кбит/сек
Ширина : 720 пикселей
Высота : 576 пикселей
Соотношение сторон : 4:3
Частота кадров : 25,000 кадров/сек
Стандарт вещания : PAL
Цветовое пространство : YUV
Субдискретизация насыщенности : 4:2:0
Битовая глубина : 8 бит
Тип развёртки : Чересстрочная
Порядок развёртки : Нижнее поле первое
Метод сжатия : С потерями
Бит/(Пиксели*Кадры) : 0.578
Временной код первого кадра : 02:16:00:12
Оригинал временного кода : Group of pictures header
Размер потока : 852 Мбайт (95%)
Аудио
Идентификатор : 189 (0xBD)-128 (0x80)
Формат : AC-3
Формат/Информация : Audio Coding 3
Расширение режима : CM (complete main)
Параметр Endianness формата : Big
Режим смешивания : DVD-Video
Продолжительность : 19 м.
Вид битрейта : Постоянный
Битрейт : 192 Кбит/сек
Каналы : 2 канала
Расположение каналов : Front: L R
Частота : 48,0 КГц
Битовая глубина : 16 бит
Метод сжатия : С потерями
Задержка видео : -288 мс.
Размер потока : 27,3 Мбайт (3%)

Скриншот с названием постановки

Скриншоты


При просмотре предлагаемого ДВД эпизодически отмечаются некоторые дефекты изображения, некоторые из которых, по-видимому, являются дефектами оригинала, а часть, вероятно, связана с погрешностями оцифровки.

Дефекты изображения, обусловленные, вероятно, недостатками оригинала

Дважды на экране отмечались цветовые полосы, продолжительность каждого эпизода — 2 кадра, то есть, менее 0,1 секунды.

При съёмке камерой, расположенной для зрителя справа-вверху, на протяжении всей записи в средней части экрана несколько левее срединной вертикальной линии отмечается наличие белой точки. На пёстрых кадрах она практически незаметна, на монотонных тёмных — всё же обращает на себя внимание. На представленном ниже скриншоте её можно видеть чуть позади изображения Джульетты.

Также её можно рассмотреть на скришотах №№ 5, 12, 16, 17 (если считать слева-направо и сверху-вниз).

Дефекты изображения, обусловленные, вероятно, погрешностями оцифровки

Эпизодически (6 или 7 эпизодов за всю запись) на экране возникают мерцающие точки, продолжительность самого длительного подобного эпизода — 10 кадров, т.е. - менее 0,5 секунды).
В формате AVI (2,18 ГБ) запись спектакля раздаётся на трекере

[Цитировать]

Борт_0017, рад встрече! Решили к имеющейся авишке добавить "девятку"? Приветствую безоговорочно! И специально указывал на Рутрекере, где можно ДВД9 взять.

[Цитировать]

24119Борт_0017, рад встрече! Решили к имеющейся авишке добавить "девятку"? Приветствую безоговорочно! И специально указывал на Рутрекере, где можно ДВД9 взять.
Не мог не скачать такой шедевр в ДВД9. Тем более с участием своих любимых Артистов.
Вот еще бы "всплыла" откуда-нибудь запись "Дон Кихот" с Е.М. Ведь появлялись же отрывки на ТВ...


Показать сообщения:    

Текущее время: 08-Дек 19:09

Часовой пояс: UTC + 3


Вы не можете начинать темы
Вы не можете отвечать на сообщения
Вы не можете редактировать свои сообщения
Вы не можете удалять свои сообщения
Вы не можете голосовать в опросах
Вы не можете прикреплять файлы к сообщениям
Вы не можете скачивать файлы