Конёк-горбунок (Дроздова / Кириллов) – Р.К. Щедрин / The Little Humpbacked Horse (Drozdova / Kirillov) - R. Schedrin (Д.А. Брянцев) [1985, СССР, балет, DVD5] МАМТ им. К.С. Станиславского и В.И. Немировича-Данченко


 

[Цитировать]

Конёк-горбунок ( Дроздова / Кириллов ) – Р.К. Щедрин / The Little Humpbacked Horse ( Drozdova / Kirillov ) - R. Schedrin
Название театра: МАМТ им. К.С. Станиславского и В.И. Немировича-Данченко
Страна: СССР
Жанр: балет
Год выпуска: 1985
Продолжительность: 1:37:08
Хореография и постановка: Д.А. Брянцев
Художник: М.А. Соколова
Либретто В. Вайнонена и П. Маклярского по сказке П. Ершова. Редакция О. Виноградова и Д. Брянцева
В ролях:
Иван — Владимир Кириллов
Девица-Краса — Маргарита Дроздова
Конёк-горбунок — Вячеслав Саркисов
Старшие братья — Александр Зайцев и Сергей Звягин
Царь — Леонид Вариченко
Золотой конь — Алексей Поповченко
Артисты балета, миманса и оркестр Московского музыкального театра имени К.С. Станиславского и В.И. Немировича-Данченко. Дирижёр — Г.Г. Жемчужин

Описание

Первое действие
Три брата, продав урожай на ярмарке, возвращаются домой. Самый старший был самый умный, средний — так себе, а младший, Иван, и вовсе дурак. Два старших брата принесли деньги, а Иван потерял свой мешок, задумавшись о балалайке, о которой он мечтал всю жизнь...
Старшие братья обругали Ивана, а потом вернулись на ярмарку, напились и заснули прямо в поле.
Наступила волшебная звёздная ночь. Иван начал считать звёзды. Вдруг откуда-то прилетел волшебный Золотой Конь. Иван не успел досчитать звёзды. Он рассердился и поймал коня. Чтобы освободиться, Золотой Конь подарил Ивану двух красивых златогривых кобылок и одного маленького неказистого коня — Конька-горбунка. Золотой Конь предупредил Ивана, чтобы он никому не отдавал маленького конька, потому что тот будет помогать в любой беде.
Этой же ночью прилетели жар-птицы. Одна из них обронила огненное перо. Иван поднял перо: оно ему очень понравилось. Уставший Иван заснул. Тем временем братья проснулись, пришли в себя, увидели красивых коней Ивана, позавидовали и украли их.
Братья решили продать коней Царю. Но Конёк-горбунок разбудил Ивана. Иван оседлал Конька-горбунка, и они полетели вдогонку за братьями. А догнали, когда братья были уже у Царя. Иван сказал Царю, что кони принадлежат ему. Царю же они очень понравились, и он спрсил Ивана, что он хочет взамен. Иван отвечал, что он хочет балалайку. И Царь обменял коней на балалайку.
Иван возвратился домой с Коньком-горбунком и весело играл. Но злые братья украли у Ивана перо жар-птицы, отнесли Царю. Перо Царю понравилось. Он приказал, чтобы Иван поймал для него жар-птицу. А если не поймает, отрубят Ивану голову.
Закручинился Иван, но Конёк-горбунок его утешил и поскакал к волшебной Серебряной горе, куда слетались жар-птицы.
Второе действие
Прилетел Конёк-горбунок с Иваном к Серебряной горе. Появились жар-птицы. Это были не жар-птицы, а заколдованные девушки. Иван с помощью Конька-горбунка поймал одну из них. Влюбились они друг в друга. Решил Иван вернуться к Царю один, зная, что жестокий Царь отрубит ему голову. Поскакал Иван обратно. Но Девица-Краса обернулась жар-птицей и, несмотря на неминуемую гибель, полетела за ним.
Царь очень обрадовался жар-птице. Он посадил её в клетку, но Иван сломал прутья и освободил жар-птицу, превратившуюся в Девицу-Красу.
Братья Ивана увидели всё это, рассказали Царю и посоветовавли погубить Ивана. Царь приказал бросить Ивана в кипящий самовар. Но Конёк-горбунок заколдовал воду, и Иван вышел из неё цел и невридим. И не только цел и невридим, но стал ещё красивее. Когда Царь увидел это, он пожелал тоже стать молодым и красивым. Прыгнул Царь в самовар и сварился.
Народ обрадовался, что избавился от жестокого и капризного Царя. Все пошли на свадьбу Ивана с Девицей-Красой. Ели, пили и веселились...

Дополнительная информация

Первая постановка балета «Конёк-горбунок» на музыку Р.К. Щедрина - Большой театр, премьера состоялась 04.03.1960. Балетмейстер А.И. Радунский, художник — Б.И. Волков. 21.12.1963 состоялась премьера этого балета в Ленинградском академическом Малом театре оперы и балета (в настоящее время - Санкт-Петербургский Государственный Академический театр оперы и балета имени М.П. Мусоргского), балетмейстер И.Д. Бельский, художник М.А. Гордон. В хореографии Д.А. Брянцева «Конёк-горбунок» впервые увидел свет в Ленинградском академическом театре оперы и балета имени С.М. Кирова (в настоящее время - Мариинский театр) 29.04.1981. Дирижировал премьерой В.А. Гергиев, оформила спектакль художник М.А. Соколова. Главные партии исполнили: Иван — Н. Ковмир, Красна-девица — Н. Павлова, Царь — П. Русанов, Конёк-горбунок — А. Сапогов. В мае 1982 г. Д.А. Брянцев поставил этот спектакль в Софийской Народной опере, также в оформлении М.А. Соколовой. В Московском академическом музыкальном театре им. К.С. Станиславского и В.И. Немировича-Данченко премьера «Конька-горбунка» в хореографии Д.А. Брянцева состоялась 28.07.1983. Художник — М.А. Соколова, дирижёр Г.Г. Жемчужин. В день прмьеры в главных партиях выступили: Девица-Краса — Маргарита Дроздова, Иван — Владимир Кириллов, Царь — Александр Домашёв, Конёк-горбунок — Вячеслав Саркисов. В 1985 году Д.А. Брянцев поставил этот спектакль в Римской Опере, также с декорациями М.А. Соколовой.
Качество видео: DVD5
Формат видео: DVDVideo
Видео кодек: MPEG2
Аудио кодек: AC3
Видео: PAL, 720x576 (4:3), 4700 kbps variable, 25 fps
Аудио: AC3 Dolby Digital, 192 kbps, 48 kHz, 2/0 (L,R) ch

MediaInfo

Общее
Полное имя : ... \Stanislavsky theatre HumpbackedHorse-DVD\VIDEO_TS\VTS_01_1.VOB
Формат : MPEG-PS
Размер файла : 1024 Мбайт
Продолжительность : 28 м.
Режим общего битрейта : Переменный
Общий поток : 4985 Кбит/сек
Видео
Идентификатор : 224 (0xE0)
Формат : MPEG Video
Версия формата : Version 2
Профиль формата : Main@Main
Параметр BVOP формата : Да
Параметр матрицы формата : Выборочная
Параметр GOP формата : M=3, N=15
Format_Settings_PictureStructure : Frame
Продолжительность : 28 м.
Вид битрейта : Переменный
Битрейт : 4693 Кбит/сек
Максимальный битрейт : 9700 Кбит/сек
Ширина : 720 пикселей
Высота : 576 пикселей
Соотношение сторон : 4:3
Частота кадров : 25,000 кадров/сек
Стандарт вещания : PAL
Цветовое пространство : YUV
Субдискретизация насыщенности : 4:2:0
Битовая глубина : 8 бит
Тип развёртки : Чересстрочная
Порядок развёртки : Верхнее поле первое
Метод сжатия : С потерями
Бит/(Пиксели*Кадры) : 0.453
Временной код первого кадра : 03:29:00:18
Оригинал временного кода : Group of pictures header
Размер потока : 964 Мбайт (94%)
Аудио
Идентификатор : 189 (0xBD)-128 (0x80)
Формат : AC-3
Формат/Информация : Audio Coding 3
Расширение режима : CM (complete main)
Параметр Endianness формата : Big
Режим смешивания : DVD-Video
Продолжительность : 28 м.
Вид битрейта : Постоянный
Битрейт : 192 Кбит/сек
Каналы : 2 канала
Расположение каналов : Front: L R
Частота : 48,0 КГц
Битовая глубина : 16 бит
Метод сжатия : С потерями
Размер потока : 39,4 Мбайт (4%)
Общее
Полное имя : ... \Stanislavsky theatre HumpbackedHorse-DVD\VIDEO_TS\VTS_01_2.VOB
Формат : MPEG-PS
Размер файла : 730 Мбайт
Продолжительность : 20 м.
Режим общего битрейта : Переменный
Общий поток : 4995 Кбит/сек
Видео
Идентификатор : 224 (0xE0)
Формат : MPEG Video
Версия формата : Version 2
Профиль формата : Main@Main
Параметр BVOP формата : Да
Параметр матрицы формата : Выборочная
Параметр GOP формата : M=3, N=15
Format_Settings_PictureStructure : Frame
Продолжительность : 20 м.
Вид битрейта : Переменный
Битрейт : 4703 Кбит/сек
Максимальный битрейт : 9700 Кбит/сек
Ширина : 720 пикселей
Высота : 576 пикселей
Соотношение сторон : 4:3
Частота кадров : 25,000 кадров/сек
Стандарт вещания : PAL
Цветовое пространство : YUV
Субдискретизация насыщенности : 4:2:0
Битовая глубина : 8 бит
Тип развёртки : Чересстрочная
Порядок развёртки : Верхнее поле первое
Метод сжатия : С потерями
Бит/(Пиксели*Кадры) : 0.454
Временной код первого кадра : 03:57:43:22
Оригинал временного кода : Group of pictures header
Размер потока : 687 Мбайт (94%)
Аудио
Идентификатор : 189 (0xBD)-128 (0x80)
Формат : AC-3
Формат/Информация : Audio Coding 3
Расширение режима : CM (complete main)
Параметр Endianness формата : Big
Режим смешивания : DVD-Video
Продолжительность : 20 м.
Вид битрейта : Постоянный
Битрейт : 192 Кбит/сек
Каналы : 2 канала
Расположение каналов : Front: L R
Частота : 48,0 КГц
Битовая глубина : 16 бит
Метод сжатия : С потерями
Задержка видео : -648 мс.
Размер потока : 28,1 Мбайт (4%)
Общее
Полное имя : ... \Stanislavsky theatre HumpbackedHorse-DVD\VIDEO_TS\VTS_02_1.VOB
Формат : MPEG-PS
Размер файла : 1024 Мбайт
Продолжительность : 27 м.
Режим общего битрейта : Переменный
Общий поток : 5186 Кбит/сек
Видео
Идентификатор : 224 (0xE0)
Формат : MPEG Video
Версия формата : Version 2
Профиль формата : Main@Main
Параметр BVOP формата : Да
Параметр матрицы формата : Выборочная
Параметр GOP формата : M=3, N=15
Format_Settings_PictureStructure : Frame
Продолжительность : 27 м.
Вид битрейта : Переменный
Битрейт : 4890 Кбит/сек
Максимальный битрейт : 9700 Кбит/сек
Ширина : 720 пикселей
Высота : 576 пикселей
Соотношение сторон : 4:3
Частота кадров : 25,000 кадров/сек
Стандарт вещания : PAL
Цветовое пространство : YUV
Субдискретизация насыщенности : 4:2:0
Битовая глубина : 8 бит
Тип развёртки : Чересстрочная
Порядок развёртки : Верхнее поле первое
Метод сжатия : С потерями
Бит/(Пиксели*Кадры) : 0.472
Временной код первого кадра : 04:31:11:20
Оригинал временного кода : Group of pictures header
Размер потока : 966 Мбайт (94%)
Аудио
Идентификатор : 189 (0xBD)-128 (0x80)
Формат : AC-3
Формат/Информация : Audio Coding 3
Расширение режима : CM (complete main)
Параметр Endianness формата : Big
Режим смешивания : DVD-Video
Продолжительность : 27 м.
Вид битрейта : Постоянный
Битрейт : 192 Кбит/сек
Каналы : 2 канала
Расположение каналов : Front: L R
Частота : 48,0 КГц
Битовая глубина : 16 бит
Метод сжатия : С потерями
Размер потока : 37,9 Мбайт (4%)
Общее
Полное имя : ... \Stanislavsky theatre HumpbackedHorse-DVD\VIDEO_TS\VTS_02_2.VOB
Формат : MPEG-PS
Размер файла : 695 Мбайт
Продолжительность : 20 м.
Режим общего битрейта : Переменный
Общий поток : 4724 Кбит/сек
Видео
Идентификатор : 224 (0xE0)
Формат : MPEG Video
Версия формата : Version 2
Профиль формата : Main@Main
Параметр BVOP формата : Да
Параметр матрицы формата : Выборочная
Параметр GOP формата : M=3, N=15
Format_Settings_PictureStructure : Frame
Продолжительность : 20 м.
Вид битрейта : Переменный
Битрейт : 4438 Кбит/сек
Максимальный битрейт : 9700 Кбит/сек
Ширина : 720 пикселей
Высота : 576 пикселей
Соотношение сторон : 4:3
Частота кадров : 25,000 кадров/сек
Стандарт вещания : PAL
Цветовое пространство : YUV
Субдискретизация насыщенности : 4:2:0
Битовая глубина : 8 бит
Тип развёртки : Чересстрочная
Порядок развёртки : Верхнее поле первое
Метод сжатия : С потерями
Бит/(Пиксели*Кадры) : 0.428
Временной код первого кадра : 04:58:48:00
Оригинал временного кода : Group of pictures header
Размер потока : 653 Мбайт (94%)
Аудио
Идентификатор : 189 (0xBD)-128 (0x80)
Формат : AC-3
Формат/Информация : Audio Coding 3
Расширение режима : CM (complete main)
Параметр Endianness формата : Big
Режим смешивания : DVD-Video
Продолжительность : 20 м.
Вид битрейта : Постоянный
Битрейт : 192 Кбит/сек
Каналы : 2 канала
Расположение каналов : Front: L R
Частота : 48,0 КГц
Битовая глубина : 16 бит
Метод сжатия : С потерями
Задержка видео : -472 мс.
Размер потока : 28,3 Мбайт (4%)

Скриншот с названием постановки

В формате "AVI" запись спектакля раздаётся на трекере (1,44 GB).
Обращаю внимание пользователей, что на предлагаемом диске, как и на большинстве дисков серии "Балеты. Лучшее на DVD" не очень аккуратно собрано меню, из-за чего пользоваться мышкой при просмотре записи на компьютере несколько неудобно: приходится кликать немного в стороне от выбираемой строки меню.

[Цитировать]

Прекрасный подарок. Никогда не видел эту постановку.

[Цитировать]

Этот спектакль сохранялся в репертуаре театра Станиславского с 1983 г. до последнего времени. Сейчас снят, как и практически всё, что было поставлено Брянцевым; один лишь "Призрачный бал" пока ещё присутствуют в афише. "Спасибо" Зеленскому.

[Цитировать]

Rezach, да это наша черта в России)) как что так сразу памятники Ленину крошить)


Показать сообщения:    

Текущее время: 06-Дек 22:57

Часовой пояс: UTC + 3


Вы не можете начинать темы
Вы не можете отвечать на сообщения
Вы не можете редактировать свои сообщения
Вы не можете удалять свои сообщения
Вы не можете голосовать в опросах
Вы не можете прикреплять файлы к сообщениям
Вы не можете скачивать файлы