Колесо Катарины - Дэвид Бирн / Catherine Wheel - David Byrne (Твайла Тарп / Twyla Tharp) [1983, Америка, Джаз-модерн, DVDRip] Twyla Tharp Dance Foundation


 

[Цитировать]

Колесо Катарины / Catherine Wheel
Название театра: Twyla Tharp Dance Foundation
Страна: Америка
Жанр: Джаз-модерн
Год выпуска: 1983
Продолжительность: 00:01:14
Режиссёр: Твайла Тарп / Twyla Tharp
В ролях: Кейт Гласнер , Сара Руднер , Дженнифер Уэй
Описание: Исполнители: Twyla Tharp Dance Foundation. Премьера "Catherine Wheel" прошла на Бродвее и стала выдающимся событием сезона. Балет поставлен на музыку Дэвида Бирна, лидера легендарной арт-панк-группы 80-х Talking Heads. Бирн хотел уничтожить барьер между поп-музыкой и другими формами искусства. Получились "в основном длинные инструментальные композиции с ярко выраженными африканскими корнями, не похожими на типичные танцевальные мотивы..." По мнению Д.Бирна, работа с Т.Тарп стала кульминацией его африканского опыта. Мученичество Святой Екатерины, которая была казнена в 4 веке на колесе, утыканном шипами, вдохновило Тарп на создание этого танцевально-балетного представления.
Твайла Тарп
Известный хореограф-модернист, лауреат театральной премии "Эмми" родилась в Портланде (Portland), штат Индиана (Indiana), США. Мать – преподаватель музыки, начала обучать дочь музыке уже в 2 года. А в четыре - Твайла стала посещать танцевальные классы и изучила всевозможные направления: классический танец, джаз, модерн, степ. Она изучала историю искусств в Barnard College в Нью-Йорке, но ее страстью был танец. Получив ученую степень по истории искусств, Твайла решила посвятить себя танцу и в 1963 г. поступила в Paul Taylor Dance Company. Но в 1965 году организовала собственную труппу Танец Туайлы Тарп (Twyla Tharp Dance), состоявшую из пяти женщин. Создала уникальный балетный стиль на основе сочетания элементов классического балета, чечетки, джаза и бальных танцев. Опираясь на формулы популярных музыкальных стилей (свинга, блюза, рэгтайма и других), Тарп смело экспериментировала с разными типами жестов и движений: оседаниями на пол, подергиваниями, толчками и отпихиваниями и несинхронными положениями рук и ног. Возможно, она является самой крупной фигурой танца модерн с начала 1970-х годов. С 1988 г. работала с АБТ. Ее балеты входят в репертуар Парижской оперы, Королев­ского балета Ковент-Гарден, труппы Нью-Йорк Сити Балет и др. С 1991 г. создавала балеты для Михаила Барыш­никова. Поставила более 125 балетов, 4 бродвейских шоу, сотрудничала с Милошем Форманом (кинофильмы "Волосы", "Рэгтайм", "Амадеус") и другими кинорежиссерами. Явля­ется лауреатом премии "Тони" (за бродвейский мюзикл Movin' Out) и двух премий "Эмми" (за телепрограмму Baryshnikov by Tharp).
Доп. информация:
Композитор: Дэвид Бирн (David Byrne)
Качество видео: DVDRip
Формат видео: AVI
Видео кодек: DivX
Аудио кодек: AC3
Видео: 512x384 (1.33:1), 25 fps, 1197 kbps
Аудио: 48 kHz, MPEG Layer 3, 2/0 (L,R) ch, 96.00 kbps

MediaInfo

Tharp-The Catherine Wheel-D Byrne.avi
Format : AVI
Format/Info : Audio Video Interleave
File size : 698 MiB
Duration : 1h 14mn
Overall bit rate : 1 303 Kbps
Writing library : VirtualDub build 18160/release
Video
ID : 0
Format : MPEG-4 Visual
Format settings, BVOP : 1
Format settings, QPel : No
Format settings, GMC : No warppoints
Format settings, Matrix : Default (H.263)
Muxing mode : Packed bitstream
Codec ID : DX50
Codec ID/Hint : DivX 5
Duration : 1h 14mn
Bit rate : 1 197 Kbps
Width : 512 pixels
Height : 384 pixels
Display aspect ratio : 4:3
Frame rate : 25.000 fps
Color space : YUV
Chroma subsampling : 4:2:0
Bit depth : 8 bits
Scan type : Progressive
Compression mode : Lossy
Bits/(Pixel*Frame) : 0.244
Stream size : 641 MiB (92%)
Writing library : DivX 5.1.1 (Maupiti) (UTC 2003-11-19)
Audio
ID : 1
Format : MPEG Audio
Format version : Version 1
Format profile : Layer 3
Mode : Joint stereo
Mode extension : MS Stereo
Codec ID : 55
Codec ID/Hint : MP3
Duration : 1h 14mn
Bit rate mode : Constant
Bit rate : 96.0 Kbps
Channel(s) : 2 channels
Sampling rate : 44.1 KHz
Compression mode : Lossy
Stream size : 51.4 MiB (7%)
Alignment : Split accross interleaves
Interleave, duration : 40 ms (1.00 video frame)
Interleave, preload duration : 500 ms

Скриншот с названием постановки

Скриншоты






Показать сообщения:    

Текущее время: 07-Дек 21:23

Часовой пояс: UTC + 3


Вы не можете начинать темы
Вы не можете отвечать на сообщения
Вы не можете редактировать свои сообщения
Вы не можете удалять свои сообщения
Вы не можете голосовать в опросах
Вы не можете прикреплять файлы к сообщениям
Вы не можете скачивать файлы