Вдохновение. Юло Вилимаа (Валдур Химбек) [1971, фильм-балет, TVRip]


 

[Цитировать]

Вдохновение. Юло Вилимаа
Жанр: балет
Год выпуска: 1971
Продолжительность: 00:29:15
Режиссёр: Валдур Химбек
Балетмейстер: Юло Вилимаа
В ролях: Юло Вилимаа, Юрис Жигурс, Визма Витол, Майе Саэалле, кордебалет театра "Ванемуйне"
Описание: Юло Вилимаа - советский и эстонский артист балета и балетмейстер.
В 1962 окончил Таллинское хореографическое училище, в 1964-65 стажировался в Ленинградском хореографическом училище. С 1962 солист балета, с 1973 главный балетмейстер театра "Ванемуйне" в Тарту. Развивал эстонский балет в русле классических традиций с привнесением особого национального колорита.
В 1985 году был удостоен звания народного артиста Эстонии.
В программе:
Ромео и Джульетта (С.Прокофьев)
Паганини (С.Рахманинов)
Пляска смерти (Сенс-Санс)
Кратть (Э.Тубин)
Коллаж (А.Пярт)
Силлабическая музыка (А.Пярт)
Релиз:
Качество видео: TVRip
Формат видео: AVI
Видео кодек: XviD
Аудио кодек: MP3
Видео: 720x544 (1.32:1), 25 fps, XviD MPEG-4 ~1397 kbps avg, 0.14 bit/pixel
Аудио: 48 kHz, MPEG Layer 3, 2 ch, ~128.00 kbps avg

MediaInfo

Полное имя : Vdohnovenie.Yulo.Vilimaa.1971.avi
Формат : AVI
Формат/Информация : Audio Video Interleave
Размер файла : 321 Мбайт
Продолжительность : 29 м.
Общий поток : 1535 Кбит/сек
Программа кодирования : VirtualDubModRus 1.5.10.2 (build 2542/release)
Библиотека кодирования : VirtualDub build 32842/release
Видео
Идентификатор : 0
Формат : MPEG-4 Visual
Профиль формата : Advanced Simple@L5
Параметр BVOP формата : 2
Параметр QPel формата : Нет
Параметр GMC формата : Без точки перехода
Параметр матрицы формата : Default (H.263)
Режим смешивания : Сжатый битовый поток
Идентификатор кодека : XVID
Идентификатор кодека/Подсказка : XviD
Продолжительность : 29 м.
Битрейт : 1398 Кбит/сек
Ширина : 720 пикселей
Высота : 544 пикселя
Соотношение сторон : 4:3
Частота кадров : 25,000 кадров/сек
Цветовое пространство : YUV
Субдискретизация насыщенности : 4:2:0
Битовая глубина : 8 бит
Тип развёртки : Прогрессивная
Метод сжатия : С потерями
Бит/(Пиксели*Кадры) : 0.143
Размер потока : 293 Мбайт (91%)
Библиотека кодирования : XviD 1.2.1 (UTC 2008-12-04)
Аудио
Идентификатор : 1
Формат : MPEG Audio
Версия формата : Version 1
Профиль формата : Layer 3
Режим : Joint stereo
Расширение режима : MS Stereo
Идентификатор кодека : 55
Идентификатор кодека/Подсказка : MP3
Продолжительность : 29 м.
Вид битрейта : Постоянный
Битрейт : 128 Кбит/сек
Каналы : 2 канала
Частота : 48,0 КГц
Метод сжатия : С потерями
Размер потока : 26,8 Мбайт (8%)
Выравнивание : Разделение по промежуткам
Продолжительность промежутка : 40 мс. (1,00 видеокадр)
Время предзагрузки промежутка : 500 мс.

Скриншоты





Показать сообщения:    

Текущее время: 11-Дек 01:28

Часовой пояс: UTC + 3


Вы не можете начинать темы
Вы не можете отвечать на сообщения
Вы не можете редактировать свои сообщения
Вы не можете удалять свои сообщения
Вы не можете голосовать в опросах
Вы не можете прикреплять файлы к сообщениям
Вы не можете скачивать файлы