Петр Чайковский - Magifique (Thierry Malandain (Тьерри Маланден) / Ballet de Biarritz / Sonia Paramo / Музыка из балетов "Спящая красавица", "Лебединое озеро", "Щелкунчик" [2010, Балет, SATRip]


 

[Цитировать]

Magifique Tchaïkovski suites
Год выпуска: 2010
Жанр: ballet
Продолжительность: 1:20:00
Хореография: Thierry Malandain
Помошник хореографа: Francoise Dubuc / Richard Coudray
Режисер постановщик: Sonia Paramo
Художник по костюмам: Karine Prins
Свет:Frederic Eujol / Christian Groussard
Музыка: Pyotr Tchaikovsky - Петр Чайковский
Адаптация музыки: Nicolas Duperoir
Исполнители:
Труппа Ballet de Biarritz:
Ione Miren Aguirre, Aurélien Alberge,
Olivier Coëffard, Ellyce Daniele,
Frederik Deberdt, Cédric Godefroid,
Aureline Guillot, Miyuki Kanei,
Fabio Lopes, Silvia Magalhaes,
Arnaud Mahouy, Joséphine Pra,
Magali Praud, Nathalie Verspecht,
Daniel Vizcayo
Описание:
Спектакль Тьерри Маландена "Magifique Tchaïkovski suites" своего рода дайджест самых известных балетов П.И.Чайковского: "Спящая красавица", "Лебединое озеро", "Щелкунчик".
Умело балансируя между мечтой и реальностью, танцоры труппы Балет Биаррица под руководством хореографа создают неповторимый мир из детских воспоминаний и сказочных персонажей.
Качество видео: SATRip
Формат/Контейнер: MPEG-4
Видео кодек: MPEG2
Аудио кодек: AAC
Видео поток: PAL, MPEG-2, 704 × 576, 16:9, 25 fps, 8.00 Mbps,
Аудио поток: AAC, 44.1 KHz, 128 Kbps
Запись с канала "MEZZO"

Mediainfo

Format : MPEG-4
Format profile : Base Media
Codec ID : isom
File size : 1.04 GiB
Duration : 1h 20mn
Overall bit rate mode : Variable
Overall bit rate : 1 852 Kbps
Video
ID : 1
Format : MPEG-4 Visual
Format profile : Simple@L1
Format settings, BVOP : No
Format settings, QPel : No
Format settings, GMC : No warppoints
Format settings, Matrix : Default (H.263)
Codec ID : 20
Duration : 1h 20mn
Bit rate : 1 720 Kbps
Width : 704 pixels
Height : 576 pixels
Display aspect ratio : 1.222
Original display aspect ratio : 16:9
Frame rate mode : Constant
Frame rate : 25.000 fps
Standard : PAL
Color space : YUV
Chroma subsampling : 4:2:0
Bit depth : 8 bits
Scan type : Progressive
Compression mode : Lossy
Bits/(Pixel*Frame) : 0.170
Stream size : 988 MiB (93%)
Writing library : Lavc51.47.2
Audio
ID : 2
Format : AAC
Format/Info : Advanced Audio Codec
Format profile : LC
Codec ID : 40
Duration : 1h 20mn
Bit rate mode : Variable
Bit rate : 128 Kbps
Channel(s) : 2 channels
Channel positions : Front: L R
Sampling rate : 44.1 KHz
Compression mode : Lossy
Stream size : 73.5 MiB (7%)
В титрах программы отсутствует информация о исполнителях музыкальных произведений,
которые использованы в качестве фонограммы для данной постановки.

Видео онлайн

[vkontakte]<iframe src="//vk.com/video_ext.php?oid=11018459&id=168357116&hash=78ea2006ec48f8a4&hd=2" width="853" height="480" frameborder="0"></iframe>[/vkontakte]

Скриншоты




Оригинал описания и видео взят с рутрекера (vecvfy)



Показать сообщения:    

Текущее время: 10-Дек 00:23

Часовой пояс: UTC + 3


Вы не можете начинать темы
Вы не можете отвечать на сообщения
Вы не можете редактировать свои сообщения
Вы не можете удалять свои сообщения
Вы не можете голосовать в опросах
Вы не можете прикреплять файлы к сообщениям
Вы не можете скачивать файлы