Рудольф Нуреев (Нуриев) в Ла Скала / Rudolf Nureyev alla Scala (Дино и Клаудио Ризи / Dino & Claudio Risi)[2005, Ballet & Documentary, DVDRip-AVC] Sub [Русские]


 

[Цитировать]


"Ballo per sempre • Я буду танцевать вечно"
»«РУДОЛЬФ НУРЕЕВ в Ла СКАЛА»«
17 марта (March, 17) 1938 — 6 января (January, 6) 1993
ФИЛЬМ-ЭССЕ
-- ФИЛЬМ ДИНО и КЛАУДИО РИЗИ Dino & Claudio Risi
АВТОРСКИЙ ПЕРЕВОД © Elena-Rybka
Язык: Итальянский/Французский
Субтитры/Subtitles: РУССКИЕ English, Italiano
Продолжительность: 79 min.
•••
Год записи: Записи разных лет
Год выпуска: 2005
Лейбл/Страна: Dolmen Home Video / Italy
Жанр: Ballet & Documentary
•••
Качество видео: DVDRip-AVC
Исходник: DVD9 [Спасибо, luisa11]
Формат/Контейнер: MKV
Видео кодек: H.264
Аудио кодек: AC3
Видео поток: 698x460, 1453 kbps, 25,000 fps.
Аудио поток: Italian, 224 kbps, 48,0 KHz, 2 ch original
В ФИЛЬМЕ УЧАСТВУЮТ
Морис БЕЖАР (хореограф) • Роберто БОЛЛЕ (звезда балета)
Этторе МO (журналист) • Виттория Минуччи ПАЛМЕР (балерина)
Марио ПАЗИ (журналист) • Карла ФРАЧЧИ (звезда балета)
Лилиана КОЗИ (звезда балета) • Тано ФЕРРАНТЕ (артист балета)
Паоло ПОДИНИ (артист балета) • Лучана САВИНЬЯНО (звезда балета) и др.

Скриншоты


MediaInfo


-

x264.log


avs [info]: 698x460p 16:15 @ 25/1 fps (cfr)
x264 [info]: using SAR=16/15
x264 [info]: using cpu capabilities: MMX2 SSE2Fast SSEMisalign LZCNT
x264 [info]: profile High, level 4.1
x264 [info]: frame I:764 Avg QP:18.57 size: 33899
x264 [info]: frame P:33113 Avg QP:20.04 size: 13605
x264 [info]: frame B:85173 Avg QP:23.02 size: 4565
x264 [info]: consecutive B-frames: 6.9% 1.4% 8.7% 39.1% 25.4% 18.5%
x264 [info]: mb I I16..4: 10.5% 71.3% 18.2%
x264 [info]: mb P I16..4: 1.2% 12.7% 1.4% P16..4: 30.9% 30.7% 10.2% 1.7% 0.4% skip:10.7%
x264 [info]: mb B I16..4: 0.2% 1.4% 0.2% B16..8: 31.5% 18.8% 2.2% direct: 9.0% skip:36.7% L0:35.7% L1:41.8% BI:22.5%
x264 [info]: 8x8 transform intra:81.4% inter:61.5%
x264 [info]: coded y,uvDC,uvAC intra: 87.0% 75.7% 37.0% inter: 27.9% 28.1% 1.8%
x264 [info]: i16 v,h,dc,p: 31% 20% 4% 45%
x264 [info]: i8 v,h,dc,ddl,ddr,vr,hd,vl,hu: 11% 9% 4% 9% 13% 14% 13% 13% 14%
x264 [info]: i4 v,h,dc,ddl,ddr,vr,hd,vl,hu: 13% 14% 5% 7% 13% 14% 13% 10% 11%
x264 [info]: i8c dc,h,v,p: 31% 26% 17% 26%
x264 [info]: Weighted P-Frames: Y:11.9% UV:5.4%
x264 [info]: ref P L0: 49.7% 11.5% 18.8% 6.8% 6.7% 5.1% 1.4% 0.1%
x264 [info]: ref B L0: 87.0% 7.9% 2.8% 1.4% 0.8%
x264 [info]: ref B L1: 98.0% 2.0%
x264 [info]: kb/s:1453.47
-
General
Unique ID : 192076636826476571992935447102842886417 (0x90809D5994725311847623FA2D7E5911)
Complete name : Rudolf Nuriev alla Scala.mkv
Format : Matroska
Format version : Version 4 / Version 2
File size : 953 MiB
Duration : 1h 19mn
Overall bit rate : 1 680 Kbps
Encoded date : UTC 2015-04-29 18:23:06
Writing application : mkvmerge v7.6.0 ('Garden of Dreams') 32bit built on Feb 8 2015 12:51:39
Writing library : libebml v1.3.1 + libmatroska v1.4.2
_STATISTICS_WRITING_APP : mkvmerge v7.6.0 ('Garden of Dreams') 32bit built on Feb 8 2015 12:51:39
_STATISTICS_WRITING_DATE_UTC : 2015-04-29 18:23:06
_STATISTICS_TAGS : BPS DURATION NUMBER_OF_FRAMES NUMBER_OF_BYTES
DURATION : 00:32:02.797000000
NUMBER_OF_FRAMES : 42
NUMBER_OF_BYTES : 1673
Video
ID : 1
Format : AVC
Format/Info : Advanced Video Codec
Format profile : High@L4.1
Format settings, CABAC : Yes
Format settings, ReFrames : 6 frames
Codec ID : V_MPEG4/ISO/AVC
Duration : 1h 19mn
Bit rate : 1 422 Kbps
Width : 698 pixels
Height : 460 pixels
Display aspect ratio : 16:10
Original display aspect ratio : 16:10
Frame rate mode : Constant
Frame rate : 25.000 fps
Color space : YUV
Chroma subsampling : 4:2:0
Bit depth : 8 bits
Scan type : Progressive
Bits/(Pixel*Frame) : 0.177
Stream size : 807 MiB (85%)
Writing library : x264 core 130 r2273 b3065e6
Encoding settings : cabac=1 / ref=6 / deblock=1:-3:-3 / analyse=0x3:0x133 / me=hex / subme=11 / psy=1 / psy_rd=1.05:0.15 / mixed_ref=1 / me_range=16 / chroma_me=1 / trellis=2 / 8x8dct=1 / cqm=0 / deadzone=21,11 / fast_pskip=1 / chroma_qp_offset=-3 / threads=3 / lookahead_threads=1 / sliced_threads=0 / nr=0 / decimate=1 / interlaced=0 / bluray_compat=0 / constrained_intra=0 / bframes=5 / b_pyramid=2 / b_adapt=2 / b_bias=0 / direct=1 / weightb=1 / open_gop=0 / weightp=2 / keyint=250 / keyint_min=25 / scenecut=40 / intra_refresh=0 / rc=crf / mbtree=0 / crf=19.7 / qcomp=0.65 / qpmin=0 / qpmax=69 / qpstep=4 / ip_ratio=1.40 / pb_ratio=1.30 / aq=1:0.90
Language : English
Default : Yes
Forced : No
_STATISTICS_WRITING_APP : mkvmerge v7.6.0 ('Garden of Dreams') 32bit built on Feb 8 2015 12:51:39
_STATISTICS_WRITING_DATE_UTC : 2015-04-29 18:23:06
_STATISTICS_TAGS : BPS DURATION NUMBER_OF_FRAMES NUMBER_OF_BYTES
DURATION : 01:19:22.000000000
NUMBER_OF_FRAMES : 119050
NUMBER_OF_BYTES : 865179300
Audio
ID : 2
Format : AC-3
Format/Info : Audio Coding 3
Mode extension : CM (complete main)
Format settings, Endianness : Big
Codec ID : A_AC3
Duration : 1h 19mn
Bit rate mode : Constant
Bit rate : 224 Kbps
Channel(s) : 2 channels
Channel positions : Front: L R
Sampling rate : 48.0 KHz
Bit depth : 16 bits
Compression mode : Lossy
Stream size : 127 MiB (13%)
Language : Italian
Default : Yes
Forced : No
Text #1
ID : 3
Format : ASS
Codec ID : S_TEXT/ASS
Codec ID/Info : Advanced Sub Station Alpha
Compression mode : Lossless
Language : Russian
Default : Yes
Forced : No
Text #2
ID : 4
Format : UTF-8
Codec ID : S_TEXT/UTF8
Codec ID/Info : UTF-8 Plain Text
Language : English
Default : No
Forced : No
Text #3
ID : 5
Format : UTF-8
Codec ID : S_TEXT/UTF8
Codec ID/Info : UTF-8 Plain Text
Language : Italian
Default : No
Forced : No
***
"А если я умру - то лишь на время. Я буду всюду. Буду всеми. Всем.
И на звезде далёкой гололёдной, бросая в космос к людям позывной,
я буду славить жизнь, как голубь мёртвый, летающий бессмертно над землёй" /Е.Евтушенко/



Показать сообщения:    

Текущее время: 06-Дек 05:37

Часовой пояс: UTC + 3


Вы не можете начинать темы
Вы не можете отвечать на сообщения
Вы не можете редактировать свои сообщения
Вы не можете удалять свои сообщения
Вы не можете голосовать в опросах
Вы не можете прикреплять файлы к сообщениям
Вы не можете скачивать файлы