Игорь Стравинский - Жар-птица (Национальный балет Канады; Джеймс Куделка, Валерий Гергиев) / Igor Stravinsky - The Firebird (National Ballet of Canada; James Kudelka, Valery Gergiev) [2003, Balet, Blu-ray 1080i]


 

[Цитировать]

Игорь Стравинский - Жар-птица / Igor Stravinsky - The Firebird
Год выпуска: 2003
Лейбл: EUROARTS
Страна-производитель: Канада
Жанр: Balet
Продолжительность: 00:52:51
Язык: Английский
Субтитры: Нет
Хореограф: James Kudelka (Джеймс Куделка)
Дирижер: Valery Gergiev (Валерий Гергиев)
Исполнители:
Greta Hodgkinson (Грета Ходкинсон) - Firebird (Жар-птица),
Aleksandar Antonijevic (Александр Антониевич) - Prince Ivan (Иван-царевич),
Rebekah Rimsay (Ребекка Римсэй) - Princess Vasilisa (Василиса Прекрасная),
Rex Harrington (Рекс Харрингтон) - Kastchei (Кащей Бессмертный),
Victoria Bertram (Виктория Бертрам) - Kastchei’s Wife (Жена Кащея)
The Kirov Orchestr (Оркестр Кировского театра), National Ballet of Canada (Национальный балет Канады)
Описание: Мрачно в зачарованном царстве Кащея. Издалека приближается Черный всадник — Ночь. В полутьме вырисовывается волшебный замок, окруженный заповедным садом с высокой стеной. С зарей в саду загораются таинственным светом волшебные золотые яблоки и появляется Жар-птица. Она кружится вокруг чудесной яблони, не замечая Ивана-царевича, который тайком перебрался через стену. Иван-царевич ловит Жар-птицу. Она мечется, но царевич держит ее крепко. Тогда Жар-птица переходит от борьбы к мольбам, и Иван-царевич уступает.
Жар-птица улетает, оставив в руках юноши три своих пера, а из заколдованного терема Кащея в сад выходят его пленницы-царевны. Царевны играют вокруг яблони, и затаившийся царевич хватает одну из них. Царевна рассказывает ему, что злой Кащей похитил ее из родного дома и держит здесь в плену. Иван-царевич решает освободить прекрасных пленниц.
Белый всадник — Утро — уже проехал мимо сада. Совсем рассвело, царевны, покорные воле Кащея, скрылись в тереме. Появляется Кащей, которого ведут под руки слуги. Он движется прямо на царевича, которому грозит участь всех, посмевших нарушить границы Кащеева сада: он превратится в камень. В последний момент Иван-царевич вспоминает о волшебных перьях Жар-птицы. И вот она уже рядом. Тем временем царевич добывает яйцо, в котором заключена смерть Кащея, и разбивает его, Кащей падает замертво. Сад озаряется волшебным светом, свободны царевны, оживают и витязи, обращенные в камни. Жар-птица подает руку освободителю.
В данной постановке классический балет сочетается с магическими визуальными эффектами.

Оригинальное описание

The Firebird is an exciting one-hour dance special based on the mystical Russian folk tale of enchantment and love, and is set to Stravinsky’s fantastical ballet score. This adaption of James Kudelka’s masterpiece for the stage, combines classical ballet with magical visual effects.
The Firebird is an exciting one-hour dance special based on the mystical Russian folk tale of enchantment and love, and is set to Stravinsky’s fantastical ballet score. This adaption of James Kudelka’s masterpiece for the stage, combines classical ballet with magical visual effects. Kudelka’s choreography is by turns elegant, virtuosic but always passionate and musically evocative.The Firebird features the top dancers from the internationally renowned National Ballet of Canada and the soloists, including the great Greta Hodgkinson (nominated for the Prix Benois de la Danse in 2000) in the title role, Aleksandar Antonijevic as Prince Ivan, Rebekah Rimsay as Princess Vasilisa, and the unforgettable Rex Harrington as Kastchei the Demon. Music performed by The Kirov Orchestra, conducted by Valery Gergiev.

Музыка балета

Музыка балета — ярко красочная, наполненная оркестровыми эффектами, хотя и написана еще в традициях Римского-Корсакова, уже несет на себе отпечаток неповторимой индивидуальности автора. Сумрачные «ползущие» звучания Вступления рисуют зачарованный сад Кащея, его зловещее царство. «Пляс Жар-птицы» фантастичен, причудлив, с изобретательно варьируемой красочной оркестровкой. В медленном, женственном «Хороводе царевен» Стравинский использует русскую народную песню «По садику». Музыкальный колорит напоминает здесь «Волшебное озеро» Лядова с его тончайшей звукописью. «Поганый пляс Кащеева царства» — зловещий, словно неживой танец, красочен, насыщен острыми ритмическими перебивками, исполненными дикой стихийной силы и пульсирующими на протяжении почти всего номера.
Дополнительные материалы: Анонсы балетов
Качество видео: Blu-ray
Формат/Контейнер: BDMV
Видео кодек: MPEG4
Аудио кодек: LPCM
Видео поток: MPEG-4 Video, 1920x1080, 24937 kbps, 29.970 fps
Аудио поток: LPCM, 2304 kbps, 48 kHz, 2 ch

BD-Info

DISC INFO:
Disc Title: Стравинский - Жар-птица (National Ballet of Canada, James Kudelka) (2003) (Blu-ray 1080i, AVC, LPCM 2.0)
Disc Size: 14,864,978,169 bytes
Protection: AACS
BD-Java: No
BDInfo: 0.5.8
PLAYLIST REPORT:
Name: 00000.MPLS
Length: 0:52:51.468 (h:m:s.ms)
Size: 11,318,704,128 bytes
Total Bitrate: 28.55 Mbps
VIDEO:
Codec Bitrate Description
----- ------- -----------
MPEG-4 AVC Video 24937 kbps 1080i / 29.970 fps / 16:9 / High Profile 4.1
AUDIO:
Codec Language Bitrate Description
----- -------- ------- -----------
LPCM Audio Undetermined 2304 kbps 2.0 / 48 kHz / 2304 kbps / 24-bit
FILES:
Name Time In Length Size Total Bitrate
---- ------- ------ ---- -------------
00001.M2TS 0:00:00.000 0:02:16.769 489,019,392 28,604
00000.M2TS 0:02:16.769 0:50:26.323 10,827,577,344 28,622
00008.M2TS 0:52:43.093 0:00:08.041 2,095,104 2,084
00007.M2TS 0:52:51.134 0:00:00.333 12,288 295
Семпл

Скриншоты


Скриншоты доп. материалов




Показать сообщения:    

Текущее время: 10-Дек 11:58

Часовой пояс: UTC + 3


Вы не можете начинать темы
Вы не можете отвечать на сообщения
Вы не можете редактировать свои сообщения
Вы не можете удалять свои сообщения
Вы не можете голосовать в опросах
Вы не можете прикреплять файлы к сообщениям
Вы не можете скачивать файлы