Приглашение на танец / Invitation to the Dance [1956, мюзикл, балет, DVDRip]


 

[Цитировать]

Приглашение на танец / Invitation to the Dance
Год выпуска: 1956
Лейбл: Metro-Goldwyn-Mayer (MGM)
Страна-производитель: США
Жанр: фильм-балет
Продолжительность: 01:32:49
Язык: Музыкальное сопровождение
Режиссер/Хореограф: Джин Келли / Gene Kelly
Исполнители: Джин Келли, Игорь Юскевич, Claire Sombert, Тамара Туманова, Диана Адамс, Томми Ралл, Белита, David Paltenghi, Дафна Дэйл, Клод Бесси ...
Треклист:
«love story»
«Кольцо вокруг розы»
«Синбад мореход»
Описание: Герои фильма рассказывают зрителю три интересных истории исключительно посредством языка танца. Первая «love story» — настоящая, красочная пантомима — история влюбленного клоуна из итальянской комедии масок. Конечно же, главную роль играет сам Келли, вместе с ним играет наш русский танцовщик Игорь Юскевич. Во втором сюжете «Кольцо вокруг розы» в одной из ролей занята довольно известная русская балерина Тамара Туманова. Третья история — «Синбад мореход» просто уникальна, так как Джин Келли танцует с множеством самых известных для того времени мультипликационных героев.-- -
-

Награды


-
-Доп. информация: Рип сделан из этого DVD5. (Который на постере)--Качество видео: DVDRip
Формат/Контейнер: AVI
Видео кодек: XviD
Аудио кодек: AC3
Видео поток: 624x480 (1.30:1), 23.976 fps, XviD build 50 ~2052 kbps avg, 0.28 bit/pixel
Аудио поток: 48 kHz, AC3 Dolby Digital, 2/0 (L,R) ch, ~192 kbps

AviInfo

File: Invitation to the Dance (1956)_DVDRip_.avi
Title: Invitation to the Dance (1956)
Author: Ripped_by_rjhlb777
Genre: Musical
Category: Movie
Comment: Original music score
FileSize: 1498.00 Mb ( 1 570 766 848 bytes )
Play length: 01:32:54.610 (133657 frames)
Subtitles: Not Present
Video: 624x480 (1.30:1), 23.976 fps, XviD build 50 ~2052 kbps avg, 0.28 bit/pixel
Audio: 48 kHz, AC3 Dolby Digital, 2/0 (L,R) ch, ~192 kbps

MediaInfo

General
Complete name : Invitation to the Dance (1956)_DVDRip_.avi
Format : AVI
Format/Info : Audio Video Interleave
File size : 1.46 GiB
Duration : 1h 32mn
Overall bit rate : 2 254 Kbps
Movie name : Invitation to the Dance (1956)
Director : Ripped_by_rjhlb777
Genre : Musical
Writing application : VirtualDubMod 1.5.10.3 | www.virtualdub-fr.org || (build 2550/release)
Original source form/Name : Movie
Comment : Original music score
Video
ID : 0
Format : MPEG-4 Visual
Format profile : Advanced Simple@L5
Format settings, BVOP : 2
Format settings, QPel : No
Format settings, GMC : No warppoints
Format settings, Matrix : Default (H.263)
Codec ID : XVID
Codec ID/Hint : XviD
Duration : 1h 32mn
Bit rate : 2 053 Kbps
Width : 624 pixels
Height : 480 pixels
Display aspect ratio : 4:3
Frame rate : 23.976 fps
Color space : YUV
Chroma subsampling : 4:2:0
Bit depth : 8 bits
Scan type : Progressive
Compression mode : Lossy
Bits/(Pixel*Frame) : 0.286
Stream size : 1.33 GiB (91%)
Writing library : XviD 1.2.1 (UTC 2008-12-04)
Audio
ID : 1
Format : AC-3
Format/Info : Audio Coding 3
Mode extension : CM (complete main)
Format settings, Endianness : Big
Codec ID : 2000
Duration : 1h 32mn
Bit rate mode : Constant
Bit rate : 192 Kbps
Channel(s) : 2 channels
Channel positions : Front: L R
Sampling rate : 48.0 KHz
Bit depth : 16 bits
Compression mode : Lossy
Stream size : 128 MiB (9%)
Alignment : Split accross interleaves
Interleave, duration : 42 ms (1.00 video frame)
Interleave, preload duratio : 500 ms



Показать сообщения:    

Текущее время: 09-Дек 18:27

Часовой пояс: UTC + 3


Вы не можете начинать темы
Вы не можете отвечать на сообщения
Вы не можете редактировать свои сообщения
Вы не можете удалять свои сообщения
Вы не можете голосовать в опросах
Вы не можете прикреплять файлы к сообщениям
Вы не можете скачивать файлы