Арам Хачатурян - Спартак (Большой театр; Юрий Григорович, Павел Клиничев) /Aram Khachaturian - Spartacus (Bolshoi Theatre of Russia; Yuri Grigorivich, Pavel Klinichev) [2008, Balet, BDRip 720p]


 

[Цитировать]

Арам Хачатурян - Спартак /Aram Khachaturian - Spartacus
Год выпуска: 2008
Лейбл: Bel Air, Decca, France 2
Страна-производитель: Франция
Жанр: Balet
Продолжительность: 02:12:42
Язык: Английский
Хореограф: Юрий Григорович (Yuri Grigorivich)
Дирижер: Павел Клиничев (Pavel Klinichev)
Исполнители:
Карлос Акоста (Carlos Acosta) - Спартак
Александр Волчков (Alexander Volchkov) - Красс
Нина Капцова (Nina Kaptsova) - Фригия
Мария Аллаш (Maria Allash) - Эгина
Soloists & Corps de Ballet of The Bolshoi Theatre of Russia (солисты и хор Большого театра), Orchestre Colonne (оркестр Колонна)
Описание: Либретто Юрия Григоровича по мотивам одноименного романа Раффаэлло Джованьоли (с использованием сценария Николая Волкова) об истории древнеримского раба-гладиатора Спартака и поднятом им восстании, произошедшем в 74 до н. э. — 71 до н. э. Восставшие сумели победить в нескольких битвах с римскими легионами. Однако в конце концов восстание под предводительством Спартака было жесточайшим образом подавлено. Римская республика этого периода являла собой погрязшую в разврате и жажде зрелищ толпу, ведомую корыстолюбивыми сенаторами и склоняющуюся в сторону то одного, то другого харизматичного лидера, стремящегося стать диктатором. Это было время начального разложения Римской республики, когда она еще была сильна, но всполохи недовольства уже зрели внутри неё, что в итоге привело к диктатуре Цезаря и основанию Римской Империи его внучатым племянником Октавианом (27 год до н.э.).
Качество видео: BDRip
Формат/Контейнер: MKV
Видео кодек: H.264
Аудио кодек: AC3
Видео поток: H.264, 1280x720, 6174 kbps, 29.970 fps
Аудио поток: AC3, 448 kbps, 48 kHz, 6 ch. AC3, 448 kbps, 48 kHz, 2 ch

MediaInfo

Общее
Уникальный идентификатор : 245385001373408832486772207340777640460 (0xB89B6EA4FA35DAF797C6905A5FD8120C)
Полное имя : W:\Torrent_4\Хачатурян - Спартак (Большой театр, Григорович) (2008) (BDRip 720p, AC3 5.1).mkv
Формат : Matroska
Версия формата : Version 4 / Version 2
Размер файла : 6,45 Гбайт
Продолжительность : 2 ч. 12 м.
Режим общего битрейта : Переменный
Общий поток : 6952 Кбит/сек
Дата кодирования : UTC 2015-02-14 11:19:49
Программа кодирования : mkvmerge v7.6.0 ('Garden of Dreams') 64bit built on Feb 8 2015 13:04:34
Библиотека кодирования : libebml v1.3.1 + libmatroska v1.4.2
_STATISTICS_WRITING_APP : mkvmerge v7.6.0 ('Garden of Dreams') 64bit built on Feb 8 2015 13:04:34
_STATISTICS_WRITING_DATE_UTC : 2015-02-14 11:19:49
_STATISTICS_TAGS : BPS DURATION NUMBER_OF_FRAMES NUMBER_OF_BYTES
DURATION : 02:12:43.328000000
NUMBER_OF_FRAMES : 248854
NUMBER_OF_BYTES : 191119872
Видео
Идентификатор : 1
Формат : AVC
Формат/Информация : Advanced Video Codec
Профиль формата : Main@L4.1
Параметр CABAC формата : Да
Параметр ReFrames формата : 3 кадра
Идентификатор кодека : V_MPEG4/ISO/AVC
Продолжительность : 2 ч. 12 м.
Вид битрейта : Переменный
Битрейт : 6174 Кбит/сек
Максимальный битрейт : 8000 Кбит/сек
Ширина : 1280 пикселей
Высота : 720 пикселей
Соотношение сторон : 16:9
Режим частоты кадров : Постоянный
Частота кадров : 29,970 кадров/сек
Стандарт вещания : NTSC
Цветовое пространство : YUV
Субдискретизация насыщенности : 4:2:0
Битовая глубина : 8 бит
Тип развёртки : Прогрессивная
Бит/(Пиксели*Кадры) : 0.224
Размер потока : 5,72 Гбайт (89%)
Язык : English
Default : Да
Forced : Нет
colour_range : Limited
Аудио #1
Идентификатор : 2
Формат : AC-3
Формат/Информация : Audio Coding 3
Расширение режима : CM (complete main)
Параметр Endianness формата : Big
Идентификатор кодека : A_AC3
Продолжительность : 2 ч. 12 м.
Вид битрейта : Постоянный
Битрейт : 448 Кбит/сек
Каналы : 6 каналов
Расположение каналов : Front: L C R, Side: L R, LFE
Частота : 48,0 КГц
Битовая глубина : 16 бит
Метод сжатия : С потерями
Размер потока : 425 Мбайт (6%)
Заголовок : AC3 6ch
Язык : English
Default : Да
Forced : Да
Аудио #2
Идентификатор : 3
Формат : AC-3
Формат/Информация : Audio Coding 3
Расширение режима : CM (complete main)
Параметр Endianness формата : Big
Идентификатор кодека : A_AC3
Продолжительность : 2 ч. 12 м.
Вид битрейта : Постоянный
Битрейт : 192 Кбит/сек
Каналы : 2 канала
Расположение каналов : Front: L R
Частота : 48,0 КГц
Битовая глубина : 16 бит
Метод сжатия : С потерями
Размер потока : 182 Мбайт (3%)
Заголовок : AC3 2ch
Язык : English
Default : Нет
Forced : Нет

Скриншоты


ф
Спартаки на трекере



Показать сообщения:    

Текущее время: 06-Дек 20:53

Часовой пояс: UTC + 3


Вы не можете начинать темы
Вы не можете отвечать на сообщения
Вы не можете редактировать свои сообщения
Вы не можете удалять свои сообщения
Вы не можете голосовать в опросах
Вы не можете прикреплять файлы к сообщениям
Вы не можете скачивать файлы