Петр Чайковский - Лебединое озеро (Балет Парижской оперы; Рудольф Нуриев, Велло Пэн; Летестю, Мартинез) / Pyotr Tchaikovsky - Swan Lake (Paris Opera Ballet; Rudolf Noureev, Vello Pahn; Letestu, Martinez) [2005, Balet, BDRip 720p]


 

[Цитировать]

Петр Чайковский - Лебединое озеро / Pyotr Tchaikovsky - Swan Lake
Год выпуска: 2005
Лейбл: OpusArte, France 3, Opera national de Paris
Страна-производитель: Франция
Жанр: Balet
Продолжительность: 02:21:30
Язык: Французский
Хореограф: Rudolf Noureev (Рудольф Нуриев)
Дирижер: Vello Pahn (Велло Пэн)
Исполнители:
Agnes Letestu (Аньес Летестю) - Odette / Odeli,
Jose Martinez (Жозе Мартинез) - Le Prince Siegfried,
Karl Paquette (Карл Пакетт) - Wolfgang, le precepteur / Rothbart,
Muriel Halle (Мурьель Халле) - La Reine
Paris Opera Ballet, Paris Opera Orchestra (балет и оркестр парижской оперы)
Описание: «Лебединое озеро» — балет Петра Ильича Чайковского, состоящий из четырёх актов, четырёх сцен или трёх актов, четырёх сцен. Постановка основана на либретто Владимира Бегичева и, возможно, Василия Гельцера. История о лебедином озере — это старинная германская легенда, повествующая о прекрасной принцессе Одетте, превращённой в лебедя проклятьем злого колдуна Ротбарта.

Оригинальное описание

Agnes Letestu, a feminine and warm Odette, Jose Martinez, a convincing, pale, vulnerable Prince Siegfried, and Karl Paquette, doubling as a dutiful Wolfgang and an equally devious Rothbart, are the stars of this deeply passionate, dream version of Swam Lake. Rudolf Nureyev's interpretation of Tchaikovsky's lyrical ballet, far from being a clichйd stereotype of this celebrated masterpiece, is an expose of astonishingly powerful and recognizable human emotions. Under the inspired and clear cut musical direction of Vello Pahn, this production of one of the jewels of the Paris Opera Ballet's repertoire brilliantly displays the meticulous precision, technical prowess and pure, unmannered style of the company's unrivalled female corps de ballet, eliciting an ethereal, intense beauty, captured for DVD in High Definition video and superb surround sound.
Качество видео: BDRip
Формат/Контейнер: MKV
Видео кодек: H.264
Аудио кодек: AC3
Видео поток: H.264, 1280x720, 6165 kbps, 29.970 fps
Аудио поток: AC3, 448 kbps, 48 kHz, 2 ch

MediaInfo

Общее
Уникальный идентификатор : 186103455394007982317204530416687786802 (0x8C0238C4970A95CD93D67B0908042B32)
Полное имя : W:\Torrent_4\Чайковский П.И. - Лебединое озеро (Paris Opera Ballet) (2005) (BDRip 720p, AC-3 5.1).mkv
Формат : Matroska
Версия формата : Version 4 / Version 2
Размер файла : 6,67 Гбайт
Продолжительность : 2 ч. 21 м.
Режим общего битрейта : Переменный
Общий поток : 6747 Кбит/сек
Дата кодирования : UTC 2015-02-02 12:22:46
Программа кодирования : mkvmerge v7.3.0 ('Nouages') 64bit built on Oct 22 2014 18:53:34
Библиотека кодирования : libebml v1.3.0 + libmatroska v1.4.1
DURATION : 02:21:30.496000000
NUMBER_OF_FRAMES : 265328
NUMBER_OF_BYTES : 475467776
_STATISTICS_WRITING_APP : mkvmerge v7.3.0 ('Nouages') 64bit built on Oct 22 2014 18:53:34
_STATISTICS_WRITING_DATE_UTC : 2015-02-02 12:22:46
_STATISTICS_TAGS : BPS DURATION NUMBER_OF_FRAMES NUMBER_OF_BYTES
Видео
Идентификатор : 1
Формат : AVC
Формат/Информация : Advanced Video Codec
Профиль формата : Main@L4.1
Параметр CABAC формата : Да
Параметр ReFrames формата : 3 кадра
Идентификатор кодека : V_MPEG4/ISO/AVC
Продолжительность : 2 ч. 21 м.
Вид битрейта : Переменный
Битрейт : 6165 Кбит/сек
Максимальный битрейт : 8000 Кбит/сек
Ширина : 1280 пикселей
Высота : 720 пикселей
Соотношение сторон : 16:9
Режим частоты кадров : Постоянный
Частота кадров : 29,970 кадров/сек
Стандарт вещания : NTSC
Цветовое пространство : YUV
Субдискретизация насыщенности : 4:2:0
Битовая глубина : 8 бит
Тип развёртки : Прогрессивная
Бит/(Пиксели*Кадры) : 0.223
Размер потока : 6,09 Гбайт (91%)
Язык : English
Default : Да
Forced : Нет
colour_range : Limited
Аудио
Идентификатор : 2
Формат : AC-3
Формат/Информация : Audio Coding 3
Расширение режима : CM (complete main)
Параметр Endianness формата : Big
Идентификатор кодека : A_AC3
Продолжительность : 2 ч. 21 м.
Вид битрейта : Постоянный
Битрейт : 448 Кбит/сек
Каналы : 6 каналов
Расположение каналов : Front: L C R, Side: L R, LFE
Частота : 48,0 КГц
Битовая глубина : 16 бит
Метод сжатия : С потерями
Размер потока : 453 Мбайт (7%)
Default : Да
Forced : Нет

Скриншоты


Blu-ray



Показать сообщения:    

Текущее время: 05-Дек 05:30

Часовой пояс: UTC + 3


Вы не можете начинать темы
Вы не можете отвечать на сообщения
Вы не можете редактировать свои сообщения
Вы не можете удалять свои сообщения
Вы не можете голосовать в опросах
Вы не можете прикреплять файлы к сообщениям
Вы не можете скачивать файлы