Kremlin Gala. Звезды балета XXI века (Жильбер, Хоффалт, Канискин, Лакарра, Дино, Лопаткина, Шемиунов, Тихомирова, Овчаренко, Кабрера, Акоста) [2014, Ballet, DVB-AVC]


 

[Цитировать]

Kremlin Gala. Звезды балета XXI века
Год выпуска: 2014
Жанр: Ballet
Продолжительность: 01:43:03
Режиссер: Сергей Филин
Исполнители: Дороте Жильбер, Джошуа Хоффалт, Михаил Канискин, Люсия Лакарра, Марлон Дино, Ульяна Лопаткина, Марат Шемиунов, Анна Тихомирова, Артем Овчаренко, Элиза Карийо Кабрера, Карлос Акоста, Люсия Лакарра, Марлон Дино, Любовь Андреева, Олег Габышев, артисты Санкт-Петербургского государственного академического театра балета Бориса Эйфмана.
Описание: В Кремлевском дворце съездов вновь случился традиционный "осенний звездопад". Фрагменты знаменитых классических балетов и современные хореографические композиции были исполнены Звездами балета XXI века.
Качество видео: DVB-AVC (РТРС-1)
Формат/Контейнер: MKV
Видео кодек: H.264
Аудио кодек: MP2
Видео поток: 720x576 (AR 785:576) 50fps ~2500 Kbps.
Аудио поток: 48000Hz 2 ch mono 192 Kbps

Треклист

Сен-Санс / Эйфман - фрагмент балета "Роден" - Любовь Андреева, Олег Габышев
Прокофьев / Нуриев - Сцена из баллета "Ромео и Джульетта"- Дороте Жильбер, Джошуа Хоффалт
Абель / Готье - Балет 101 - Михаил Канискин
Рахманинов / Стивенсон - Прелюдии - Люсия Лакарра, Марлон Дино, Петр Чухнов (фортепьяно)
Шостакович / Григорович - Танго из балета "Золотой Век" - Ульяна Лопаткина, Марат Шемиунов
Нобл / Поклитару - Сама мысль о Вас - Анна Тихомирова, Артем Овчаренко, Александр Коган(вокал)
Рахманинов / Эйфман - фрагм. балета "По ту сторону греха" - артисты Санкт-Петербургского государственного академического театра балета Бориса Эйфмана
Бургмюллер / Малахов - Пери - Элиза Карийо Кабрера, Михаил Канискин
Корон / Альтунаги - Память - Карлос Акоста
Шопен / Ноймаер - дуэт из балета "Дама с камелиями" - Люсия Лакарра, Марлон Дино, Петр Чухнов (фортепьяно)
Левенсхольд / Бурновиль - Па-де-де из балета "Сильфида" - Анна Тихомирова, Артем Овчаренко
Масне / Пети - "Таис" из балета "Моя Павлова" - Ульяна Лопаткина, Марат Шемиунов
Чайковский / Эйфман - фрагм. балета "Анна Каренина" - артисты Санкт-Петербургского государственного академического театра балета Бориса Эйфмана
Маев / Филин - Дефиле - все участники, "Виртуозы Москвы"

MediaInfo

Format : MatroskaFormat version : Version 4 / Version 2File size : 2.00 GiBDuration : 1h 43mnOverall bit rate : 2 784 KbpsEncoded date : UTC 2015-01-11 21:55:48Writing application : mkvmerge v6.1.0 ('Old Devil') built on Mar 4 2013 09:10:42Writing library : libebml v1.3.0 + libmatroska v1.4.0
VideoID : 1Format : AVCFormat/Info : Advanced Video CodecFormat profile : Main@L3.0Format settings, CABAC : YesFormat settings, ReFrames : 3 framesCodec ID : V_MPEG4/ISO/AVCDuration : 1h 43mnBit rate : 2 537 KbpsWidth : 720 pixelsHeight : 576 pixelsDisplay aspect ratio : 4:3Original display aspect ratio : 4:3Frame rate mode : ConstantFrame rate : 25.000 fpsStandard : ComponentColor space : YUVChroma subsampling : 4:2:0Bit depth : 8 bitsScan type : InterlacedBits/(Pixel*Frame) : 0.245Stream size : 1.83 GiB (91%)Default : YesForced : NoColor primaries : BT.601 PALTransfer characteristics : BT.470 System B, BT.470 System GMatrix coefficients : BT.601
AudioID : 2Format : MPEG AudioFormat version : Version 1Format profile : Layer 2Codec ID : A_MPEG/L2Codec ID/Hint : MP2Duration : 1h 43mnBit rate mode : ConstantBit rate : 192 KbpsChannel(s) : 2 channelsSampling rate : 48.0 KHzCompression mode : LossyDelay relative to video : 19msStream size : 142 MiB (7%)Default : YesForced : No

Скриншоты




Показать сообщения:    

Текущее время: 11-Дек 07:06

Часовой пояс: UTC + 3


Вы не можете начинать темы
Вы не можете отвечать на сообщения
Вы не можете редактировать свои сообщения
Вы не можете удалять свои сообщения
Вы не можете голосовать в опросах
Вы не можете прикреплять файлы к сообщениям
Вы не можете скачивать файлы