Клаудио Монтеверди, Бруно Моретти - Караваджо (Берлинский государственный балет; Мауро Бигонцетти) / Claudio Monteve, Bruno Moretti - Caravaggio (Staatsballett Berlin; Mauro Bigonzetti, Andreas Morell; Paul Connelly) [2008, Balet, BDRip 720p]


 

[Цитировать]

Клаудио Монтеверди, Бруно Моретти - Караваджо / Claudio Monteve, Bruno Moretti - Caravaggio
Год выпуска: 2008
Лейбл: Arthaus Musik, Staatsoper Berlin
Страна-производитель: США, Германия
Жанр: Balet
Продолжительность: 01:32:44
Язык: Немецкий
Хореограф: Mauro Bigonzetti (Мауро Бигонцетти), Andreas Morell (Андреас Морелль)
Дирижер: Paul Connelly (Пол Коннелли)
Исполнители:
Vladimir Malakhov (Владимир Малахов) - Караваджо,
Polina Semionova (Полина Семионова) - Свет,
Beatrice Knop (Беатрис Кноп) - Ангел,
Mikhail Kaniskin (Михаил Канискин) - Святой Матфей,
Dmitry Semionov (Дмитрий Семионов),
Elisa Carrillo Cabrera (Элиза Каррилло Кабрера),
Shoko Nakamura (Шоко Накамура),
Michael Banzhaf (Михаэль Банцхаф),
Leonard Jakovina (Леонард Яковина)
Staatsballett Berlin (Берлинский государственный балет), Staatskapelle Berlin (Берлинская государственная капелла)
Описание: Берлинский балет, возглавляемый Владимиром Малаховым, представляет балет «Караваджо», поставленный итальянским хореографом Мауро Бигонзетти. Рассказ о великом художнике, раскрывающий историю его жизни и оживляющий его картины. «Караваджо» скроен почти по эйфмановскому лекалу: страдающий художник и развратное общество. Спектакль делится на две части: в первой упоминаются какие-то детали реальной биографии живописца, вторая — фантазия на тему его «матфеевского» цикла. Сквозь римскую толпу, летящую в карнавальном танце, художника таскают два пьяных вакха — спаивают, непристойным движением выжимая ему в рот сок из виноградной кисти, и подталкивают к шальным па. Но передвижения художника отслеживает девушка, обозначенная как Свет (роль досталась Полине Семионовой), — нечто вроде ангела-хранителя, олицетворённого призвания. Свет с художником жесток: вплоть до заломленной за спину руки и перехваченного локтем горла. Хочет он того или не хочет, пусть даже заслоняется от неё руками и видеть её не желает, но девушка повлечёт его к художественным занятиям, заставив отшатнуться от пьяных бездельников...
Все спектакли Караваджо через поиск
Качество видео: BDRip
Формат/Контейнер: MKV
Видео кодек: MPEG4
Аудио кодек: AC3
Видео поток: MPEG-4 AVC, 1280x720, 5997 kbps, 29.970 fps
Аудио поток: AC-3, 224 kbps, 48 kHz, 2 ch

Медиаинфо

Общее
Уникальный идентификатор : 65205194348412312193132699602645404555 (0x310E104A3886EA2663F2AEFF66E7CB8B)
Полное имя : D:\Фильмы DVD и HD\Монтеверди Клаудио, Моретти Бруно - Караваджо (Staatsballett Berlin) (2008) (BDRip 720i).mkv
Формат : Matroska
Версия формата : Version 4 / Version 2
Размер файла : 4,02 Гбайт
Продолжительность : 1 ч. 32 м.
Общий поток : 6222 Кбит/сек
Программа кодирования : XviD4PSP 7.0 / 55.48.100
Библиотека кодирования : XviD4PSP 7.0 / 55.48.100
COMMENT : MPEGTS > MKV 1280x Progressive / H264 > MPEG4 VBR 6000kbps SHQ / DTS-HD MA > AC3 CBR 224kbps
Видео
Идентификатор : 1
Формат : MPEG-4 Visual
Профиль формата : Simple@L1
Параметр BVOP формата : Нет
Параметр QPel формата : Нет
Параметр GMC формата : Без точки перехода
Параметр матрицы формата : Default (H.263)
Идентификатор кодека : V_MPEG4/ISO/ASP
Идентификатор кодека/Информация : Advanced Simple Profile
Продолжительность : 1 ч. 32 м.
Битрейт : 5874 Кбит/сек
Ширина : 1280 пикселей
Высота : 720 пикселей
Соотношение сторон : 16:9
Режим частоты кадров : Постоянный
Частота кадров : 29,970 кадров/сек
Цветовое пространство : YUV
Субдискретизация насыщенности : 4:2:0
Битовая глубина : 8 бит
Тип развёртки : Прогрессивная
Метод сжатия : С потерями
Бит/(Пиксели*Кадры) : 0.213
Размер потока : 3,80 Гбайт (94%)
Библиотека кодирования : Lavc55.69.100
Default : Да
Forced : Нет
Аудио
Идентификатор : 2
Формат : AC-3
Формат/Информация : Audio Coding 3
Расширение режима : CM (complete main)
Параметр Endianness формата : Big
Идентификатор кодека : A_AC3
Продолжительность : 1 ч. 32 м.
Вид битрейта : Постоянный
Битрейт : 224 Кбит/сек
Каналы : 6 каналов
Расположение каналов : Front: L C R, Side: L R, LFE
Частота : 48,0 КГц
Битовая глубина : 16 бит
Метод сжатия : С потерями
Задержка видео : 2 с. 798 мс.
Размер потока : 148 Мбайт (4%)
Default : Да
Forced : Нет

Скриншоты






Показать сообщения:    

Текущее время: 04-Дек 09:10

Часовой пояс: UTC + 3


Вы не можете начинать темы
Вы не можете отвечать на сообщения
Вы не можете редактировать свои сообщения
Вы не можете удалять свои сообщения
Вы не можете голосовать в опросах
Вы не можете прикреплять файлы к сообщениям
Вы не можете скачивать файлы