Александр Глазунов - Раймонда (Театр Ла Скала; Сергей Вихарев, Михаил Юровский; Новикова, Фогель, Зени) / Alexander Glazunov - Raymonda (Teatro alla Scala; Sergei Vikharev, Michail Jurowski; Novikova, Vogel, Zeni) [2011, Balet, Blu-ray 1080i]


 

[Цитировать]

Александр Глазунов - Раймонда / Alexander Glazunov - Raymonda
Год выпуска: 2011
Лейбл: Arthaus Musik, Rai, Teatro alla Scala
Страна-производитель: США, Италия
Жанр: Balet
Продолжительность: 02:32:55
Язык: Английский
Субтитры: Английские, немецкие, французские, итальянские, испанские
Хореограф: Sergei Vikharev (Сергей Вихарев)
Дирижер: Michail Jurowski (Михаил Юровский)
Исполнители:
Olesia Novikova (Олеся Новикова) - Raymonds, contessa de Doris,
Friedemann Vogel (Фридеман Фогель) - cavaliere Jean de Brienne,
Mick Zeni (Мик Зени) - Abderahman, cavaliere saraceno,
Maria Franceska Garritano (Мария-Франческа Гаритано) - Henrietta, amica di Raymonda,
Francecka Podini (Франческа Подини) - Clemence, amica di Raymonda,
Claudio Coviello (Клаудио Ковьелло) - Beranger, troubadour d'Aquitania,
Marco Agostino (Марко Агостино) - Bernard de Ventodour, troubadour Provenzale,
Sabina Galassa (Сабина Джалассо) - Contessa Sybille, canonichessa, zia di Raymonda,
Luigi Saruggia (Луиджи Саруджа) - Andrea II , re d'Ungheria,
Manuela Aufieri (Мануэла Аутьери) - La Dama Bianca, proterice dei de Doris,
Matteo Buongiorno (Маттео Буонджорно) - Siniscalco, сру governa il castello dei de Doris,
Matthew Endicott (Мэттью Эндикотт) - Ufficiale Verle
Corpo di Ballo (Солисты балетной труппы и ученики Академии балета театра Ла Скала), Coro e Orchestra del Teatro alla Scala (хор и оркестр театра Ла Скала)
Описание: Балет в 3 актах 4 картинах Александра Глазунова. Либретто Мариуса Петипа и Ивана Всеволожского по сценарию Лидии Пашковой. В основе сюжета рыцарская легенда о любви. Романтический сюжет и удачное либретто обеспечили спектаклю большую зрелищность и привлекательность для постановки.
Премьера балета состоялась 7 января 1898 года. Первыми исполнителями главных партий были Пьерина Леньяни (Раймонда), Сергей Легат (Жан де Бриен) и Павел Гердт (Абдерахман). Партии подруг Раймонды исполнили Клавдия Куличевская (Клеманс) и Ольга Преображенская (Генриетта). Вариации в картине «Сон» танцевали Вера Трефилова и Екатерина Гельцер. Характерные танцы исполнили: панадерос — Иосиф Кшесинский, сарацинский – Мария Скорсюк и Александр Горский, мазурка — Мария Петипа и Иосиф Кшесинский, палотас — Ольга Преображенская и Альфред Бекефи. Вариация четырёх танцовщиков в grand pas (Георгий Кякшт, Александр Горский, Сергей и Николай Легат) была повторена на премьере по требованию публики, что является редчайшим случаем в мужском классическом танце.
Воссозданы оригинальная хореография Мариуса Петипа, костюмы и декорации 1898 года.
Подробнее о балете

Оригинальное описание

The last great work from the glorious era of the Imperial ballets has never before been performed by the La Scala ballet. Its La Scala premiere marks the most faithful version of Raymonda yet to the original, which met with triumphant success in St. Petersburg in 1898. Based on a medieval legend, with ladies, knights, crusaders and Saracens, cathedrals and castles, the libretto had all the ingredients needed to spark the imagination of the young Alexander Glazunov in his first ballet score, and the infinite wisdom of Marius Petipa, who complemented it with an enormously rich and endless succession of dances, classical variations, exotic dances and character dances, with a grandiose finale, pantomime, lyrical “pas de deux” and a heavily featured corps de ballet. Drawing on notation from the Harvard archives, original designs housed in the St Petersburg State Museum of Theatre and Theatre Library, La Scala presents the last great work from the glory days of the Imperial Ballet.
Качество видео: Blu-ray
Формат/Контейнер: BDMV
Видео кодек: MPEG4
Аудио кодек: LPCM, DTS
Видео поток: MPEG-4 Video, 1920x1080, 11483 kbps, 29.970 fps
Аудио поток: LPCM, 2304 kbps, 48 kHz, 2 ch. DTS-HD MA, 4333 kbps, 48 kHz, 6 ch

BD-Info

DISC INFO:
Disc Title: Глазунов Александр - Раймонда (Teatro alla Scala) (2011) (Blu-ray 1080i, AVC, DTS-HD 5.1)
Disc Size: 22 174 594 032 bytes
Protection: AACS
BD-Java: No
BDInfo: 0.5.8
PLAYLIST REPORT:
Name: 00000.MPLS
Length: 2:32:55.533 (h:m:s.ms)
Size: 22 104 514 560 bytes
Total Bitrate: 19,27 Mbps
VIDEO:
Codec Bitrate Description
----- ------- -----------
MPEG-4 AVC Video 11483 kbps 1080i / 29,970 fps / 16:9 / High Profile 4.1
AUDIO:
Codec Language Bitrate Description
----- -------- ------- -----------
LPCM Audio Undetermined 2304 kbps 2.0 / 48 kHz / 2304 kbps / 24-bit
DTS-HD Master Audio Undetermined 4333 kbps 5.1 / 48 kHz / 4333 kbps / 24-bit (DTS Core: 5.1 / 48 kHz / 1509 kbps / 24-bit)
FILES:
Name Time In Length Size Total Bitrate
---- ------- ------ ---- -------------
00000.M2TS 0:00:00.000 1:09:22.158 9 964 339 200 19 152
00002.M2TS 1:09:22.158 1:23:18.994 12 139 051 008 19 426
00006.M2TS 2:32:41.152 0:00:14.047 1 112 064 633
00005.M2TS 2:32:55.199 0:00:00.333 12 288 295
Семпл

Скриншоты






Показать сообщения:    

Текущее время: 08-Дек 03:13

Часовой пояс: UTC + 3


Вы не можете начинать темы
Вы не можете отвечать на сообщения
Вы не можете редактировать свои сообщения
Вы не можете удалять свои сообщения
Вы не можете голосовать в опросах
Вы не можете прикреплять файлы к сообщениям
Вы не можете скачивать файлы