Клаудио Монтеверди, Бруно Моретти - Караваджо (Берлинский государственный балет; Мауро Бигонцетти) / Claudio Monteve, Bruno Moretti - Caravaggio (Staatsballett Berlin; Mauro Bigonzetti, Andreas Morell; Paul Connelly) [2008, Balet, Blu-ray 1080i]


 

[Цитировать]

Клаудио Монтеверди, Бруно Моретти - Караваджо / Claudio Monteve, Bruno Moretti - Caravaggio
Год выпуска: 2008
Лейбл: Arthaus Musik, Staatsoper Berlin
Страна-производитель: США, Германия
Жанр: Balet
Продолжительность: 01:32:44
Язык: Немецкий
Хореограф: Mauro Bigonzetti (Мауро Бигонцетти), Andreas Morell (Андреас Морелль)
Дирижер: Paul Connelly (Пол Коннелли)
Исполнители:
Vladimir Malakhov (Владимир Малахов) - Караваджо,
Polina Semionova (Полина Семионова) - Свет,
Beatrice Knop (Беатрис Кноп) - Ангел,
Mikhail Kaniskin (Михаил Канискин) - Святой Матфей,
Dmitry Semionov (Дмитрий Семионов),
Elisa Carrillo Cabrera (Элиза Каррилло Кабрера),
Shoko Nakamura (Шоко Накамура),
Michael Banzhaf (Михаэль Банцхаф),
Leonard Jakovina (Леонард Яковина)
Staatsballett Berlin (Берлинский государственный балет), Staatskapelle Berlin (Берлинская государственная капелла)
Описание: Берлинский балет, возглавляемый Владимиром Малаховым, представляет балет «Караваджо», поставленный итальянским хореографом Мауро Бигонзетти. Рассказ о великом художнике, раскрывающий историю его жизни и оживляющий его картины. «Караваджо» скроен почти по эйфмановскому лекалу: страдающий художник и развратное общество. Спектакль делится на две части: в первой упоминаются какие-то детали реальной биографии живописца, вторая — фантазия на тему его «матфеевского» цикла. Сквозь римскую толпу, летящую в карнавальном танце, художника таскают два пьяных вакха — спаивают, непристойным движением выжимая ему в рот сок из виноградной кисти, и подталкивают к шальным па. Но передвижения художника отслеживает девушка, обозначенная как Свет (роль досталась Полине Семионовой), — нечто вроде ангела-хранителя, олицетворённого призвания. Свет с художником жесток: вплоть до заломленной за спину руки и перехваченного локтем горла. Хочет он того или не хочет, пусть даже заслоняется от неё руками и видеть её не желает, но девушка повлечёт его к художественным занятиям, заставив отшатнуться от пьяных бездельников...

Оригинальное описание

Caravaggio, born Michelangelo Merisi, has entered history due to his paintings of dramatic intensity. Caravaggio used to venture the threshold beyond the pale throughout his life. He was seen for admiration of his work and harsh opposition towards his extraordinary realism in painting human beings. Due to his passionate personality, he encountered more than several confl icts with people around him, sponsors, and the law. One of his foremost artistic twists was the extreme contrast between brightness and darkness, light and shadow. Mauro Bigonzetti is one of the leading choreographers of the Italian ballet which freed itself from the predominance of mainly classical opera companies in the 80’s. He created his choreographies mainly for the Aterballetto in Reggio Emilia that helped him to fame and worldwide attention. “When I think of Caravaggio, I think of the artist and the human being at the same time. These are the two sides of the human existence that interest me in particular. The relations of these two worlds are the inspiration for this work: the inner world on the one hand – and how it evolves artistically on the other.” Mauro Bigonzetti has developed the piece CARAVAGGIO in collaboration with the Staatsballett Berlin.
Recorded live at the Staatsoper Unter den Linden, Berlin, December 2008.
Бонусы:
Making of "Caravaggio" (29:06), 1080i
Picture Galleries
Все спектакли Караваджо через поиск
Качество видео: Blu-ray
Формат/Контейнер: BDMV
Видео кодек: MPEG4
Аудио кодек: LPCM, DTS
Видео поток: MPEG-4 Video, 1920x1080, 15950 kbps, 29.970 fps
Аудио поток: LPCM, 1536 kbps, 48 kHz, 2 ch. DTS-HD MA, 5331 kbps, 48 kHz, 8 ch

BD-Info

DISC INFO:
Disc Title: Моретти Бруно, Монтеверди Клаудио - Караваджо (Staatsballett Berlin) (2008) (Blu-ray 1080i, AVC, DTS-HD 7.1)
Disc Size: 20 814 290 772 bytes
Protection: AACS
BD-Java: No
BDInfo: 0.5.8
PLAYLIST REPORT:
Name: 00005.MPLS
Length: 1:32:44.592 (h:m:s.ms)
Size: 16 944 857 088 bytes
Total Bitrate: 24,36 Mbps
VIDEO:
Codec Bitrate Description
----- ------- -----------
MPEG-4 AVC Video 15950 kbps 1080i / 29,970 fps / 16:9 / High Profile 4.1
AUDIO:
Codec Language Bitrate Description
----- -------- ------- -----------
LPCM Audio German 1536 kbps 2.0 / 48 kHz / 1536 kbps / 16-bit
DTS-HD Master Audio German 5331 kbps 7.1 / 48 kHz / 5331 kbps / 24-bit (DTS Core: 5.1 / 48 kHz / 1509 kbps / 24-bit)
FILES:
Name Time In Length Size Total Bitrate
---- ------- ------ ---- -------------
00148.M2TS 0:00:00.000 1:32:29.544 16 943 714 304 24 425
00149.M2TS 1:32:29.544 0:00:14.047 1 112 064 633
00145.M2TS 1:32:43.591 0:00:01.000 30 720 246
Семпл

Скриншоты


Скриншоты доп. материалов





Показать сообщения:    

Текущее время: 11-Дек 16:48

Часовой пояс: UTC + 3


Вы не можете начинать темы
Вы не можете отвечать на сообщения
Вы не можете редактировать свои сообщения
Вы не можете удалять свои сообщения
Вы не можете голосовать в опросах
Вы не можете прикреплять файлы к сообщениям
Вы не можете скачивать файлы