Арканджело Корелли, Франсис Пуленк - Пыль и свет (Алонсо Кинг) / Arcangelo Corelli, Francis Poulenc - Dust and Light (Alonzo King) [2012, Ballet, HDTVRip]


 

[Цитировать]

Пыль и свет / Dust and Light
Год выпуска: 2012
Лейбл: Lines Ballet
Страна-производитель: США
Жанр: Ballet
Продолжительность: 00:31:26
Музыка: Арканджело Корелли / Arcangelo Corelli, Франсис Пуленк / Francis Poulenc
Сценография: Роберт Розенвассер / Robert Rosenwasser
Режиссер/Хореограф: Алонсо Кинг / Alonzo King
Исполнители:
David Harvey, Courtney Henry, Ashely Jackson, Laurel Keen, Yujin Kim, Victor M. Arellano, Michael Montgomery, Caroline Rocher, Zack Tang, Meredith Webster, Keelan Whitmore, Kara Wilkes, Ricardo Zayas
Описание: Хореограф Алонсо Кинг - балет «Пыль и свет», спектакль записан в 2012 году, премьера состоялась в 2009.
Доп. информация: Рип и описание alex7, за что ему огромное спасибо
Качество видео: HDTVRip
Формат/Контейнер: MKV
Видео кодек: H.264
Аудио кодек: AC3
Видео поток: MPEG4 Video (H264) 1920x1080 25fps 5858 Kbps
Аудио поток: Dolby AC3 48000Hz 6ch 384kbps

Mediainfo

Format : Matroska
File size : 1.40 GiB
Duration : 31mn 26s
Overall bit rate : 6 369 Kbps
Writing application : Lavf51.12.1
Writing library : Lavf51.12.1
Video
ID : 1
Format : AVC
Format/Info : Advanced Video Codec
Format profile : Baseline@L4.0
Format settings, CABAC : No
Format settings, ReFrames : 2 frames
Muxing mode : Container profile=Unknown@4.0
Codec ID : V_MPEG4/ISO/AVC
Duration : 31mn 26s
Bit rate : 5 858 Kbps
Width : 1 920 pixels
Height : 1 080 pixels
Display aspect ratio : 16:9
Frame rate : 25.000 fps
Standard : PAL
Color space : YUV
Chroma subsampling : 4:2:0
Bit depth : 8 bits
Scan type : Progressive
Bits/(Pixel*Frame) : 0.113
Stream size : 1.29 GiB (92%)
Color primaries : BT.470-6 System B, BT.470-6 System G, BT.601-6 625, BT.1358 625, BT.1700 625 PAL, BT.1700 625 SECAM
Transfer characteristics : BT.470-6 System B, BT.470-6 System G
Matrix coefficients : BT.470-6 System B, BT.470-6 System G, BT.601-6 625, BT.1358 625, BT.1700 625 PAL, BT.1700 625 SECAM, IEC 61966-2-4 601
Audio
ID : 2
Format : AC-3
Format/Info : Audio Coding 3
Mode extension : CM (complete main)
Codec ID : A_AC3
Duration : 31mn 26s
Bit rate mode : Constant
Bit rate : 384 Kbps
Channel(s) : 6 channels
Channel positions : Front: L C R, Side: L R, LFE
Sampling rate : 48.0 KHz
Bit depth : 16 bits
Stream size : 86.4 MiB (6%)

Скриншоты




Показать сообщения:    

Текущее время: 07-Дек 00:48

Часовой пояс: UTC + 3


Вы не можете начинать темы
Вы не можете отвечать на сообщения
Вы не можете редактировать свои сообщения
Вы не можете удалять свои сообщения
Вы не можете голосовать в опросах
Вы не можете прикреплять файлы к сообщениям
Вы не можете скачивать файлы