Сергей Прокофьев - Петя и Волк (Мэтью Харт) / Prokofiev - Peter and the Wolf (Matthew Hart, Paul Murphy) [2010, ballet, HDTVRip]


 

[Цитировать]

Петя и Волк / Peter and the Wolf
Год выпуска: 2010 (запись 16 и 18 декабря)
Лейбл: ROH
Страна-производитель: Великобритания
Жанр: ballet
Продолжительность: 00:31:33
Музыка: Сергей Прокофьев / Prokofiev
Дирижер: Пол Мёрфи / Paul Murphy
Оркестр: Royal Ballet Sinfonia
Режиссер/Хореограф: Мэтью Харт / Matthew Hart
Исполнители:
Sergei Polunin (The Wolf),
Will Kemp (Grandfather),
Kilian Smith (Peter),
Charlotte Edmonds (Duck),
Laurine Muccioli (Bird),
Chisato Katsura (Cat)
Описание: Mузыкальная сказка Сергея Прокофьева «Петя и Волк» радует детей с 1936 года. В 1995 году Мэтью Харт создал удивительно изобретательную версию для Королевской Балетной школы Великобритании (Royal Ballet School). Здесь Дед Пети, кошки, утки, даже лесные деревья и зелень - разыгрывают события, которые оставляют Петю триумфатором, а Волк оказывается пленённым.
Доп. информация: Рип alex7, за что ему огромное спасибо.
Качество видео: HDTVRip
Формат/Контейнер: MKV
Видео кодек: H.264
Аудио кодек: AC3
Видео поток: MPEG4 Video (H264) 1280x720 25.00fps 5 911 Kbps
Аудио поток: Dolby AC3 48000Hz stereo 448 Kbps

Mediainfo

Format : Matroska
File size : 1.43 GiB
Duration : 31mn 33s
Overall bit rate : 6 488 Kbps
Writing application : Lavf51.12.1
Writing library : Lavf51.12.1
Video
ID : 1
Format : AVC
Format/Info : Advanced Video Codec
Format profile : Baseline@L1.3
Format settings, CABAC : No
Format settings, ReFrames : 1 frame
Muxing mode : Container profile=Unknown@1.3
Codec ID : V_MPEG4/ISO/AVC
Duration : 31mn 33s
Bit rate : 5 911 Kbps
Width : 1 280 pixels
Height : 720 pixels
Display aspect ratio : 16:9
Frame rate : 25.000 fps
Color space : YUV
Chroma subsampling : 4:2:0
Bit depth : 8 bits
Scan type : Progressive
Bits/(Pixel*Frame) : 0.257
Stream size : 1.30 GiB (91%)
Audio
ID : 2
Format : AC-3
Format/Info : Audio Coding 3
Mode extension : CM (complete main)
Codec ID : A_AC3
Duration : 31mn 33s
Bit rate mode : Constant
Bit rate : 448 Kbps
Channel(s) : 2 channels
Channel positions : Front: L R
Sampling rate : 48.0 KHz
Bit depth : 16 bits
Stream size : 101 MiB (7%)
Language : English

Скриншоты




Показать сообщения:    

Текущее время: 05-Дек 03:31

Часовой пояс: UTC + 3


Вы не можете начинать темы
Вы не можете отвечать на сообщения
Вы не можете редактировать свои сообщения
Вы не можете удалять свои сообщения
Вы не можете голосовать в опросах
Вы не можете прикреплять файлы к сообщениям
Вы не можете скачивать файлы