Джон Ланчбери - Сказки Беатрис Поттер (Фредерик Аштон) / John Lanchbery - Tales of Beatrix Potter (Frederick Ashton, Paul Murphy)[2007, ballet, HDTVRip]


 

[Цитировать]

Сказки Беатрис Поттер / Tales of Beatrix Potter
Год выпуска: 2007 (запись 23 и 27 декабря)
Лейбл: ROH
Страна-производитель: Великобритания
Жанр: ballet
Продолжительность: 01:12:06
Музыка: Джон Ланчбери / John Lanchbery
Дирижер: Пол Мёрфи / Paul Murphy
Оркестр: Royal Ballet Sinfonia
Режиссер/Хореограф: Фредерик Аштон / Frederick Ashton
Исполнители:
Victoria Hewitt (Mrs Tittlemouse),
Ricardo Cervera (Johnny Town-Mouse),
Jonathan Howells (Mrs Tiggy-Winkle),
Gemma Sykes (Jemima Puddle-Duck),
Gary Avis (The Fox),
Bennet Gartside (Pigling Bland), Laura Morera (Pig-Wig),
David Pickering (Aunt Pettitoes),
Zachary Faruque (Mr Jeremy Fisher),
Giacomo Ciriaci (Tom Thumb),
Iohna Loots (Hunca Munca),
Joshua Tuifua (Peter Rabbit),
Steven McRae (Squirrel Nutkin)
Треклист: Балет в одном действии
Описание: В 1971 году самый почитаемый английский хореограф Фредерик Аштон специально для кино поставил весёлый балет на тему любимых в Великобритании историй Беатрис Поттер – «Сказки Беатрис Поттер» (Tales of Beatrix Potter), в котором действующими лицами была лесная живность. Джон Ланчбери для этого фильма создал лёгкую музыкальную партитуру, включив в неё как куски из известных балетных постановок, так и почти забытые викторианские мелодии.
В киноверсии балет просуществовал почти 20 лет, пока в 1992 году (4 декабря) Энтони Доуэлл не перенёс его на сцену Королевского балета, сделав одним из любимых рождественских спектаклей. Тем не менее, в какой-то период «Сказки» вновь выпали из репертуара труппы, но в 2007 году в обновлённом виде их вернули на сцену, а BBC сняла спектакль для телетрансляции в новогоднюю ночь.
Доп. информация: Рип и описание alex7, за что ему огромное спасибо.
Качество видео: HDTVRip
Формат/Контейнер: MKV
Видео кодек: H.264
Аудио кодек: AC3
Видео поток: MPEG4 Video (H264) 1280x720 25.00fps 3 485 Kbps
Аудио поток: Dolby AC3 48000Hz 6ch 448 Kbps

Mediainfo

Format : Matroska
File size : 2.02 GiB
Duration : 1h 12mn
Overall bit rate : 4 013 Kbps
Writing application : Lavf51.12.1
Writing library : Lavf51.12.1
Video
ID : 1
Format : AVC
Format/Info : Advanced Video Codec
Format profile : Baseline@L3.1
Format settings, CABAC : No
Format settings, ReFrames : 2 frames
Format settings, GOP : M=1, N=16
Muxing mode : Container profile=Unknown@3.1
Codec ID : V_MPEG4/ISO/AVC
Duration : 1h 12mn
Bit rate : 3 485 Kbps
Width : 1 280 pixels
Height : 720 pixels
Display aspect ratio : 16:9
Frame rate : 25.000 fps
Standard : PAL
Color space : YUV
Chroma subsampling : 4:2:0
Bit depth : 8 bits
Scan type : Progressive
Bits/(Pixel*Frame) : 0.151
Stream size : 1.76 GiB (87%)
Color primaries : BT.470-6 System B, BT.470-6 System G, BT.601-6 625, BT.1358 625, BT.1700 625 PAL, BT.1700 625 SECAM
Transfer characteristics : BT.470-6 System B, BT.470-6 System G
Matrix coefficients : BT.470-6 System B, BT.470-6 System G, BT.601-6 625, BT.1358 625, BT.1700 625 PAL, BT.1700 625 SECAM, IEC 61966-2-4 601
Audio
ID : 2
Format : AC-3
Format/Info : Audio Coding 3
Mode extension : CM (complete main)
Codec ID : A_AC3
Duration : 1h 12mn
Bit rate mode : Constant
Bit rate : 448 Kbps
Channel(s) : 6 channels
Channel positions : Front: L C R, Side: L R, LFE
Sampling rate : 48.0 KHz
Bit depth : 16 bits
Stream size : 231 MiB (11%)

Скриншоты




Показать сообщения:    

Текущее время: 09-Дек 08:47

Часовой пояс: UTC + 3


Вы не можете начинать темы
Вы не можете отвечать на сообщения
Вы не можете редактировать свои сообщения
Вы не можете удалять свои сообщения
Вы не можете голосовать в опросах
Вы не можете прикреплять файлы к сообщениям
Вы не можете скачивать файлы