Джакомо Мейербер - Конькобежцы (Фредерик Аштон) / Giacomo Meyerbeer - Les Patineurs (Paul Murphy ,Frederick Ashton) [2010, ballet, HDTVRip]


 

[Цитировать]

Конькобежцы / Les Patineurs
Год выпуска: 2010
Лейбл: ROH
Страна-производитель: Великобритания
Жанр: ballet
Продолжительность: 00:26:53
Музыка: Джакомо Мейербер / Giacomo Meyerbeer из опер "Пророк" и "Звезда севера" в аранжировке К. Ламберта
Дирижер: Paul Murphy
Оркестр: Royal Ballet Sinfonia
Режиссер/Хореограф: Фредерик Аштон / Frederick Ashton
Исполнители:
Celisa Diuana,
Kristen Mcnally,
Demelza Parish,
Lara Turk,
Ryochi Hirano,
Kenta Kura,
Liam Scarlett,
Andrej Uspenski,
Samantha Raine,
Akane Takada
Описание: Постановка хореографа Фредерика Аштона в Королевском театре «Ковент-Гарден» на музыку Джакомо Мейербера из опер «Пророк» и «Звезда севера» в аранжировке К. Ламберта
Доп. информация: Рип alex7, за что ему огромное спасибо.
В другом качестве можно скачать: http://teatrix.ru/viewtopic.php?t=3239
Качество видео: HDTVRip
Формат/Контейнер: MKV
Видео кодек: H.264
Аудио кодек: AC3
Видео поток: MPEG4 Video (H264) 1280x720 25.00fps 5 901 Kbps
Аудио поток: Dolby AC3 48000Hz stereo 448 Kbps

Mediainfo

Format : Matroska
File size : 1.22 GiB
Duration : 26mn 53s
Overall bit rate : 6 478 Kbps
Writing application : Lavf51.12.1
Writing library : Lavf51.12.1
Video
ID : 1
Format : AVC
Format/Info : Advanced Video Codec
Format profile : Baseline@L1.3
Format settings, CABAC : No
Format settings, ReFrames : 1 frame
Muxing mode : Container profile=Unknown@1.3
Codec ID : V_MPEG4/ISO/AVC
Duration : 26mn 53s
Bit rate : 5 901 Kbps
Width : 1 280 pixels
Height : 720 pixels
Display aspect ratio : 16:9
Frame rate : 25.000 fps
Color space : YUV
Chroma subsampling : 4:2:0
Bit depth : 8 bits
Scan type : Progressive
Bits/(Pixel*Frame) : 0.256
Stream size : 1.11 GiB (91%)
Audio
ID : 2
Format : AC-3
Format/Info : Audio Coding 3
Mode extension : CM (complete main)
Codec ID : A_AC3
Duration : 26mn 53s
Bit rate mode : Constant
Bit rate : 448 Kbps
Channel(s) : 2 channels
Channel positions : Front: L R
Sampling rate : 48.0 KHz
Bit depth : 16 bits
Stream size : 86.2 MiB (7%)
Language : English

Скриншоты




Показать сообщения:    

Текущее время: 08-Дек 14:52

Часовой пояс: UTC + 3


Вы не можете начинать темы
Вы не можете отвечать на сообщения
Вы не можете редактировать свои сообщения
Вы не можете удалять свои сообщения
Вы не можете голосовать в опросах
Вы не можете прикреплять файлы к сообщениям
Вы не можете скачивать файлы