Ариф Меликов - Легенда о любви (Юрий Григорович, Павел Сорокин) / Arif Melikov - Legend of love (Yuri Grigorovich) [2014, ballet, HDTVRip]


 

[Цитировать]

Легенда о любви / Legend of love
Год выпуска: 2014
Лейбл: ГАБТ
Страна-производитель: Россия
Жанр: ballet
Продолжительность: 02:09:45
Музыка: Ариф Меликов / Arif Melikov
Дирижер: Павел Сорокин
Исполнители музыки: оркестр Большого театра
Режиссер/Хореограф: Юрий Григорович / Yuri Grigorovich
Исполнители:
Мехмене Бану, царица Мария Аллаш
Ферхад, придворный художник Денис Родькин
Ширин, сестра царицы Анна Никулина
Визирь Виталий Биктимиров
Незнакомец Евгений Головин
Друзья Ферхада Карим Абдуллин, Артемий Беляков, Дмитрий Дорохов, Клим Ефимов
Придворные танцовщицы Ангелина Карпова, Нелли Кобахидзе
Шут Игорь Цвирко
Подруги Ширин Юлия Лунькина, Светлана Павлова, Дарья Хохлова
Офицеры Батыр Аннадурдыев, Александр Водопетов, Александр Воробьев, Дмитрий Ефремов, Антон Савичев, Иван Семиреченский
Треклист: Балет в трех действиях
Описание: Запись трансляции от 26 октября 2014
Доп. информация: Запись выполнена MAURICELUGHER, за что ему огромное спасибо.
Качество видео: HDTVRip
Формат/Контейнер: MKV
Видео кодек: H.264
Аудио кодек: AC3
Видео поток: MPEG4 Video (H264) 1920x1080 25.00fps 10000 Kbps
Аудио поток: Dolby AC3 48000Hz 6ch 448 Kbps

Mediainfo Intro

Format : Matroska
File size : 1.26 GiB
Duration : 17mn 16s
Overall bit rate : 10.5 Mbps
Movie name : Intro ts 0
Encoded date : UTC 2014-10-26 23:27:11
Writing application : mkvmerge v6.0.0 ('Coming Up For Air') built on Jan 20 2013 12:38:35
Writing library : libebml v1.3.0 + libmatroska v1.4.0
Video
ID : 1
Format : AVC
Format/Info : Advanced Video Codec
Format profile : High@L4.0
Format settings, CABAC : Yes
Format settings, ReFrames : 3 frames
Muxing mode : Container profile=Unknown@4.0
Codec ID : V_MPEG4/ISO/AVC
Duration : 17mn 17s
Bit rate : 10 000 Kbps
Width : 1 920 pixels
Height : 1 080 pixels
Display aspect ratio : 16:9
Frame rate : 25.000 fps
Color space : YUV
Chroma subsampling : 4:2:0
Bit depth : 8 bits
Scan type : Progressive
Bits/(Pixel*Frame) : 0.193
Stream size : 1.18 GiB (94%)
Writing library : x264 core 129 r2245 bc13772
Encoding settings : cabac=1 / ref=3 / deblock=1:0:0 / analyse=0x3:0x113 / me=hex / subme=7 / psy=1 / psy_rd=1.00:0.00 / mixed_ref=1 / me_range=16 / chroma_me=1 / trellis=1 / 8x8dct=1 / cqm=0 / deadzone=21,11 / fast_pskip=1 / chroma_qp_offset=-2 / threads=6 / lookahead_threads=1 / sliced_threads=0 / nr=0 / decimate=1 / interlaced=0 / bluray_compat=0 / constrained_intra=0 / bframes=3 / b_pyramid=0 / b_adapt=1 / b_bias=0 / direct=1 / weightb=1 / open_gop=0 / weightp=2 / keyint=250 / keyint_min=25 / scenecut=40 / intra_refresh=0 / rc_lookahead=40 / rc=2pass / mbtree=1 / bitrate=10000 / ratetol=1.0 / qcomp=0.60 / qpmin=0 / qpmax=69 / qpstep=4 / cplxblur=20.0 / qblur=0.5 / vbv_maxrate=25000 / vbv_bufsize=25000 / nal_hrd=vbr / ip_ratio=1.40 / aq=1:1.00
Audio
ID : 2
Format : AC-3
Format/Info : Audio Coding 3
Mode extension : CM (complete main)
Codec ID : A_AC3
Duration : 17mn 16s
Bit rate mode : Constant
Bit rate : 448 Kbps
Channel(s) : 6 channels
Channel positions : Front: L C R, Side: L R, LFE
Sampling rate : 48.0 KHz
Bit depth : 16 bits
Stream size : 55.4 MiB (4%)
Language : Russian

Скриншоты


[Цитировать]

Ну почему не интерлейс! Прямо беда!


Показать сообщения:    

Текущее время: 09-Дек 03:05

Часовой пояс: UTC + 3


Вы не можете начинать темы
Вы не можете отвечать на сообщения
Вы не можете редактировать свои сообщения
Вы не можете удалять свои сообщения
Вы не можете голосовать в опросах
Вы не можете прикреплять файлы к сообщениям
Вы не можете скачивать файлы