Петр Чайковский - Лебединое озеро (Рудольф Нуреев) / Schwanensee / Peter Tschaikowsky - Swan Lake (Rudolf Nureev, Manuel Legris, Alexander Ingram) [2014, ballet, HDTVRip]


 

[Цитировать]

Лебединое озеро / Schwanensee / Swan Lake
Год выпуска: 2014
Лейбл: UNITEL CLASSICA
Страна-производитель: Австрия
Жанр: ballet
Продолжительность: 02:11:59
Композитор: Петр Чайковский / Peter Tschaikowsky
Дирижер: Александр Инграм / Alexander Ingram
Исполнители музыки: Оркестр Венской государственной оперы / Orchester der Wiener Staatsoper
Режиссер/Хореограф: Рудольф Нуреев /Rudolf Nureev по Мариусу Петипа и Льву Иванову
Восстановление хореографии: Мануэль Легри / Manuel Legris
Исполнители:
Vladimir Shishov (Prinz Siegfried),
Olga Esina (Odette-Odile),
Eno Peci (Zauberer Rotbart)
Треклист: Балет в четырех актах
Описание:
Рудольф Нуреев создал этот спектакль в 1964 году в Вене. Его постановка балета «Лебединое озеро» стала классикой и в 1966 году была записана с ним и Марго Фонтейн для телевидения (ссылка на тему ниже по тексту), затем в 1984 году перенесена на сцену Национальной парижской оперы (ссылка ниже).
Спустя 50 лет историческая постановка «Лебединого озера» возобновлена в Вене главным балетмейстером Венской государственной оперы Мануэлем Легри в новом сценическом оформлении и в новых костюмах по сценографии Луизы Спинателли, за дирижерским пультом британский дирижер Александр Инграм. В главных партиях выступили первые солисты балета Венской государственной оперы Ольга Есина и Владимир Шишов — воспитанники Академии имени Вагановой в Петербурге.
Доп. информация: Рип и описание alex7, за что ему огромное спасибо.
Качество видео: HDTVRip
Формат/Контейнер: MKV
Видео кодек: H.264
Аудио кодек: AC3
Видео поток: MPEG4 Video (H264) 1920x1080 25.00fps 5871 Kbps
Аудио поток: Dolby AC3 48000Hz 6ch 384 Kbps

Mediainfo

Format : Matroska
File size : 5.88 GiB
Duration : 2h 11mn
Overall bit rate : 6 382 Kbps
Writing application : Lavf51.12.1
Writing library : Lavf51.12.1
Video
ID : 1
Format : AVC
Format/Info : Advanced Video Codec
Format profile : Baseline@L4.0
Format settings, CABAC : No
Format settings, ReFrames : 2 frames
Muxing mode : Container profile=Unknown@4.0
Codec ID : V_MPEG4/ISO/AVC
Duration : 2h 11mn
Bit rate : 5 871 Kbps
Width : 1 920 pixels
Height : 1 080 pixels
Display aspect ratio : 16:9
Frame rate : 25.000 fps
Standard : PAL
Color space : YUV
Chroma subsampling : 4:2:0
Bit depth : 8 bits
Scan type : Progressive
Bits/(Pixel*Frame) : 0.113
Stream size : 5.41 GiB (92%)
Color primaries : BT.470-6 System B, BT.470-6 System G, BT.601-6 625, BT.1358 625, BT.1700 625 PAL, BT.1700 625 SECAM
Transfer characteristics : BT.470-6 System B, BT.470-6 System G
Matrix coefficients : BT.470-6 System B, BT.470-6 System G, BT.601-6 625, BT.1358 625, BT.1700 625 PAL, BT.1700 625 SECAM, IEC 61966-2-4 601
Audio
ID : 2
Format : AC-3
Format/Info : Audio Coding 3
Mode extension : CM (complete main)
Codec ID : A_AC3
Duration : 2h 11mn
Bit rate mode : Constant
Bit rate : 384 Kbps
Channel(s) : 6 channels
Channel positions : Front: L C R, Side: L R, LFE
Sampling rate : 48.0 KHz
Bit depth : 16 bits
Stream size : 363 MiB (6%)

Скриншоты




Показать сообщения:    

Текущее время: 08-Дек 21:11

Часовой пояс: UTC + 3


Вы не можете начинать темы
Вы не можете отвечать на сообщения
Вы не можете редактировать свои сообщения
Вы не можете удалять свои сообщения
Вы не можете голосовать в опросах
Вы не можете прикреплять файлы к сообщениям
Вы не можете скачивать файлы