П. И. Чайковский - Лебединое озеро (Фредерик Аштон, Борис Грузин) / P. I. Tschaikowsky - Swan Lake (Frederick Ashton, Boris Gruzin) [2012, ballet, HDTVRip]


 

[Цитировать]

Лебединое озеро / Swan Lake
Год выпуска: 2012
Лейбл: ROH
Страна-производитель: Великобритания
Жанр: ballet
Продолжительность: 02:22:08
Композитор: Петр Ильич Чайковский / Peter Ilyitch Tschaikowsky
Дирижер: Борис Грузин / Boris Gruzin
Исполнители музыки: The Orchestra Royal Opera Covent Garden
Режиссер/Хореограф: Фредерик Аштон / Frederick Ashton
Исполнители:
Zenaida Yanowsky (Odette),
Nehemiah Kish (Prince Siegfried),
Elizabeth McGorian (The Princess),
Gary Avis (Rothbart)
Треклист: Балет в 4 действиях
Описание: Запись трансляции 23 октября 2012 года
Доп. информация: Рип alex7, за что ему огромное спасибо от пользователей rutracker
Качество видео: HDTVRip
Формат/Контейнер: MKV
Видео кодек: H.264
Аудио кодек: AC3
Видео поток: MPEG4 Video (H264) 1920x1080 25.00fps 5871 Kbps
Аудио поток: Dolby AC3 48000Hz 6ch 384 Kbps

Mediainfo

Format : Matroska
File size : 6.34 GiB
Duration : 2h 22mn
Overall bit rate : 6 382 Kbps
Writing application : Lavf51.12.1
Writing library : Lavf51.12.1
Video
ID : 1
Format : AVC
Format/Info : Advanced Video Codec
Format profile : Baseline@L4.0
Format settings, CABAC : No
Format settings, ReFrames : 2 frames
Muxing mode : Container profile=Unknown@4.0
Codec ID : V_MPEG4/ISO/AVC
Duration : 2h 22mn
Bit rate : 5 871 Kbps
Width : 1 920 pixels
Height : 1 080 pixels
Display aspect ratio : 16:9
Frame rate : 25.000 fps
Standard : PAL
Color space : YUV
Chroma subsampling : 4:2:0
Bit depth : 8 bits
Scan type : Progressive
Bits/(Pixel*Frame) : 0.113
Stream size : 5.83 GiB (92%)
Color primaries : BT.470-6 System B, BT.470-6 System G, BT.601-6 625, BT.1358 625, BT.1700 625 PAL, BT.1700 625 SECAM
Transfer characteristics : BT.470-6 System B, BT.470-6 System G
Matrix coefficients : BT.470-6 System B, BT.470-6 System G, BT.601-6 625, BT.1358 625, BT.1700 625 PAL, BT.1700 625 SECAM, IEC 61966-2-4 601
Audio
ID : 2
Format : AC-3
Format/Info : Audio Coding 3
Mode extension : CM (complete main)
Codec ID : A_AC3
Duration : 2h 22mn
Bit rate mode : Constant
Bit rate : 384 Kbps
Channel(s) : 6 channels
Channel positions : Front: L C R, Side: L R, LFE
Sampling rate : 48.0 KHz
Bit depth : 16 bits
Stream size : 390 MiB (6%)

Скриншоты




Показать сообщения:    

Текущее время: 03-Дек 20:39

Часовой пояс: UTC + 3


Вы не можете начинать темы
Вы не можете отвечать на сообщения
Вы не можете редактировать свои сообщения
Вы не можете удалять свои сообщения
Вы не можете голосовать в опросах
Вы не можете прикреплять файлы к сообщениям
Вы не можете скачивать файлы