Marco Schiavoni - Marco Polo (Luciano Cannito, Nice Mediterranee Ballet) / Марко Поло (Лучиано Каннито) [2014, ballet, HDTVRip]


 

[Цитировать]

Марко Поло / Marco Polo
Год выпуска: 2014
Лейбл: Mezzo
Страна-производитель: Франция
Жанр: ballet
Продолжительность: 01:33:10
Музыка: Marco Schiavoni
Режиссер/Хореограф: Лучиано Каннито / Luciano Cannito
Исполнители:
Alessio Passaquindici, Eric Vu-An
Описание: «Марко Поло» в постановке Балета Средиземноморской Ниццы записан в мае 2014 года на сцене Большого театра Гонконга.
Доп. информация: Рип alex7, за что ему огромное спасибо
Качество видео: HDTVRip
Формат/Контейнер: MKV
Видео кодек: H.264
Аудио кодек: MP3
Видео поток: MPEG4 Video (H264) 1920x1080 25.00fps 5 794 Kbps
Аудио поток: MPEG Audio Layer 3 48000Hz stereo 256 Kbps

Mediainfo

Format : Matroska
File size : 4.02 GiB
Duration : 1h 33mn
Overall bit rate : 6 173 Kbps
Encoded date : UTC 2014-10-14 08:24:51
Writing application : mkvmerge v6.6.0 built on Dec 1 2013 17:55:00
Writing library : libebml v1.3.0 + libmatroska v1.4.1
Video
ID : 1
Format : AVC
Format/Info : Advanced Video Codec
Format profile : Baseline@L4.0
Format settings, CABAC : No
Format settings, ReFrames : 2 frames
Muxing mode : Container profile=Unknown@4.0
Codec ID : V_MPEG4/ISO/AVC
Duration : 1h 33mn
Bit rate : 5 794 Kbps
Width : 1 920 pixels
Height : 1 080 pixels
Display aspect ratio : 16:9
Frame rate : 25.000 fps
Standard : PAL
Color space : YUV
Chroma subsampling : 4:2:0
Bit depth : 8 bits
Scan type : Progressive
Bits/(Pixel*Frame) : 0.112
Stream size : 3.77 GiB (94%)
Color primaries : BT.470-6 System B, BT.470-6 System G, BT.601-6 625, BT.1358 625, BT.1700 625 PAL, BT.1700 625 SECAM
Transfer characteristics : BT.470-6 System B, BT.470-6 System G
Matrix coefficients : BT.470-6 System B, BT.470-6 System G, BT.601-6 625, BT.1358 625, BT.1700 625 PAL, BT.1700 625 SECAM, IEC 61966-2-4 601
Audio
ID : 2
Format : MPEG Audio
Format version : Version 1
Format profile : Layer 3
Mode : Joint stereo
Codec ID : A_MPEG/L3
Codec ID/Hint : MP3
Duration : 1h 33mn
Bit rate mode : Constant
Bit rate : 256 Kbps
Channel(s) : 2 channels
Sampling rate : 48.0 KHz
Stream size : 171 MiB (4%)

Скриншоты




Показать сообщения:    

Текущее время: 10-Дек 17:46

Часовой пояс: UTC + 3


Вы не можете начинать темы
Вы не можете отвечать на сообщения
Вы не можете редактировать свои сообщения
Вы не можете удалять свои сообщения
Вы не можете голосовать в опросах
Вы не можете прикреплять файлы к сообщениям
Вы не можете скачивать файлы